<?xml version="1.0" standalone="no"?>
<!DOCTYPE svg PUBLIC "-//W3C//DTD SVG 1.1//EN" "http://www.w3.org/Graphics/SVG/1.1/DTD/svg11.dtd" >
<svg xmlns="http://www.w3.org/2000/svg">
<metadata>
Created by FontForge 20120731 at Tue Apr  5 16:22:18 2016
 By Ads
</metadata>
<defs>
<font id="es-icon" horiz-adv-x="1024" >
  <font-face 
    font-family="es-icon"
    font-weight="500"
    font-stretch="normal"
    units-per-em="1024"
    panose-1="2 0 6 3 0 0 0 0 0 0"
    ascent="896"
    descent="-128"
    x-height="792"
    bbox="0 -212.087 1024 896"
    underline-thickness="50"
    underline-position="-100"
    unicode-range="U+0078-E6B2"
  />
<missing-glyph horiz-adv-x="374" 
d="M34 0v682h272v-682h-272zM68 34h204v614h-204v-614z" />
    <glyph glyph-name=".notdef" horiz-adv-x="374" 
d="M34 0v682h272v-682h-272zM68 34h204v614h-204v-614z" />
    <glyph glyph-name=".null" horiz-adv-x="0" 
 />
    <glyph glyph-name="nonmarkingreturn" horiz-adv-x="341" 
 />
    <glyph glyph-name="x" unicode="x" horiz-adv-x="1001" 
d="M281 543q-27 -1 -53 -1h-83q-18 0 -36.5 -6t-32.5 -18.5t-23 -32t-9 -45.5v-76h912v41q0 16 -0.5 30t-0.5 18q0 13 -5 29t-17 29.5t-31.5 22.5t-49.5 9h-133v-97h-438v97zM955 310v-52q0 -23 0.5 -52t0.5 -58t-10.5 -47.5t-26 -30t-33 -16t-31.5 -4.5q-14 -1 -29.5 -0.5
t-29.5 0.5h-32l-45 128h-439l-44 -128h-29h-34q-20 0 -45 1q-25 0 -41 9.5t-25.5 23t-13.5 29.5t-4 30v167h911zM163 247q-12 0 -21 -8.5t-9 -21.5t9 -21.5t21 -8.5q13 0 22 8.5t9 21.5t-9 21.5t-22 8.5zM316 123q-8 -26 -14 -48q-5 -19 -10.5 -37t-7.5 -25t-3 -15t1 -14.5
t9.5 -10.5t21.5 -4h37h67h81h80h64h36q23 0 34 12t2 38q-5 13 -9.5 30.5t-9.5 34.5q-5 19 -11 39h-368zM336 498v228q0 11 2.5 23t10 21.5t20.5 15.5t34 6h188q31 0 51.5 -14.5t20.5 -52.5v-227h-327z" />
    <glyph glyph-name="uniE600" unicode="&#xe600;" 
d="M661 215h-34l-11 11q67 78 67 181q0 56 -22 107.5t-59.5 88.5t-88.5 59t-108 22q-118 0 -200 -85q-77 -81 -77 -192q0 -115 81 -196.5t196 -81.5q103 0 181 67l11 -12v-33l214 -213l63 63zM405 215q-52 0 -96 25.5t-70 70t-26 96.5t26 96t70 70t96 26q80 0 136 -56.5
t56 -136t-56 -135.5t-136 -56z" />
    <glyph glyph-name="uniE601" unicode="&#xe601;" 
d="M853 641h-682q-36 0 -60.5 -25t-24.5 -60l-1 -512q0 -35 25 -60t61 -25h682q36 0 61 25t25 60v512q0 14 -4.5 27t-12.5 23.5t-18.5 18.5t-23.5 12t-27 4zM853 471l-341 -214l-341 214v85l341 -213l341 213v-85z" />
    <glyph glyph-name="uniE602" unicode="&#xe602;" 
d="M640 300q71 0 121 50t50 120.5t-50 120.5t-121 50t-121 -50t-50 -120q0 -35 13.5 -66.5t36.5 -54.5t54.5 -36.5t66.5 -13.5zM256 385v128h-85v-128h-128v-85h128v-128h85v128h128v85h-128zM640 215q-45 0 -101.5 -11t-111.5 -31.5t-91.5 -54.5t-36.5 -74v-85h682v85
q0 24 -13 45.5t-34.5 38t-50.5 31t-61 24.5t-64.5 17.5t-62.5 11t-55 3.5z" />
    <glyph glyph-name="uniE603" unicode="&#xe603;" 
d="M299 385l213 -213l213 213h-426z" />
    <glyph glyph-name="uniE604" unicode="&#xe604;" 
d="M512 300q71 0 121 50t50 121q0 46 -23 85.5t-62.5 62t-85.5 22.5q-71 0 -121 -50t-50 -120.5t50 -120.5t121 -50zM512 215q-45 0 -101.5 -11t-111.5 -31.5t-91.5 -54.5t-36.5 -74v-85h682v85q0 40 -36.5 74t-91.5 54.5t-111.5 31.5t-101.5 11z" />
    <glyph glyph-name="uniE605" unicode="&#xe605;" 
d="M938 471q0 47 -40 72l-386 226l-386 -226q-41 -25 -41 -72v-427q0 -23 11.5 -42.5t31 -31t43.5 -11.5h682q36 0 61 25t25 60zM512 257l-352 221l352 206l352 -206z" />
    <glyph glyph-name="uniE606" unicode="&#xe606;" 
d="M490.5 -127q35.5 0 60.5 25t25 61h-171q0 -36 25 -61t60.5 -25zM768 129v235q0 97 -60.5 172.5t-152.5 97.5v29q0 26 -19 45t-45.5 19t-45 -19t-18.5 -45v-29q-93 -22 -153.5 -97.5t-60.5 -172.5v-235l-85 -85v-43h725v43z" />
    <glyph glyph-name="uniE607" unicode="&#xe607;" 
d="M491 -127q35 0 60 25t25 61h-171q0 -24 11.5 -43.5t31 -31t43.5 -11.5zM768 364q0 97 -60.5 172.5t-152.5 97.5v29q0 13 -5 24.5t-14 20.5t-20.5 14t-24.5 5q-27 0 -45.5 -19t-18.5 -45v-29q-29 -7 -62 -24l403 -403v0v0v1v0v1v0v1v1v1v1v1v1v1v1v1v1v1v1v1v1v1v1v1v1v1
v1v1v1v1v1v1v1v1v1v1v1v2v1v1v1v1v1v2v1v1v1v1v2v1v1v1v2v1v1v2v1v1v2v1v2v1v1v2v1v2v1v2v1v1v2v1v2v1v2v1v2v2v1v2v1v2v1v2v2v1v2v1v2v2v1v2v2v1v2v2v2v1v2v2v1v2v2v2v1v2v2v2v2v1v2v2v2v2v8zM757 1l85 -85l54 54l-714 714l-54 -54l125 -125q-19 -32 -29.5 -67.5
t-10.5 -73.5v-235l-85 -85v-43h629z" />
    <glyph glyph-name="uniE608" unicode="&#xe608;" 
d="M302 659l-61 61q-78 -59 -124.5 -146.5t-51.5 -188.5h85q5 84 45.5 155.5t106.5 118.5zM874 385h85q-5 101 -51.5 188.5t-124.5 146.5l-61 -61q66 -47 106.5 -118.5t45.5 -155.5zM789 364q0 97 -60 172.5t-153 97.5v29q0 26 -18.5 45t-45.5 19t-45.5 -19t-18.5 -45v-29
q-93 -22 -153 -97.5t-60 -172.5v-235l-86 -85v-43h726v43l-86 85v235zM512 -127q8 0 17 2q44 9 62 50q6 16 6 34h-170q0 -23 11 -43t31 -31.5t43 -11.5z" />
    <glyph glyph-name="uniE609" unicode="&#xe609;" 
d="M768 727h-512q-35 0 -60 -25t-25 -61v-682q0 -36 25 -61t60 -25h512q35 0 60 25t25 61v682q0 36 -25 61t-60 25zM256 641h213v-341l-106 64l-107 -64v341z" />
    <glyph glyph-name="uniE60A" unicode="&#xe60a;" 
d="M725 684h-426q-36 0 -60.5 -25t-24.5 -60l-1 -683l299 128l299 -128v683q0 23 -11.5 42.5t-31 31t-43.5 11.5zM725 44l-213 93l-213 -93v555h426v-555z" />
    <glyph glyph-name="uniE60B" unicode="&#xe60b;" 
d="M725 684h-426q-36 0 -60.5 -25t-24.5 -60l-1 -683l299 128l299 -128v683q0 23 -11.5 42.5t-31 31t-43.5 11.5z" />
    <glyph glyph-name="uniE60C" unicode="&#xe60c;" 
d="M597 727h-341q-23 0 -42.5 -11.5t-31 -31t-11.5 -43.5v-682q0 -36 24.5 -61t60.5 -25h512q35 0 60 25t25 61v512zM452 -2v0l-121 121l60 60l61 -60l181 181l60 -60zM555 428v235l234 -235h-234z" />
    <glyph glyph-name="uniE60D" unicode="&#xe60d;" 
d="M597 727h-341q-35 0 -60 -25t-25 -61v-682q0 -24 11 -43.5t30.5 -31t43.5 -11.5h512q35 0 60 25t25 61v512zM683 257h-128v-186q0 -44 -31.5 -75.5t-75.5 -31.5t-75.5 31.5t-31.5 75.5t31.5 75.5t75.5 31.5q18 0 34 -6t30 -16v187h171v-86zM550 428v235l235 -235h-235z
" />
    <glyph glyph-name="uniE60E" unicode="&#xe60e;" 
d="M597 727h-341q-35 0 -60 -25t-25 -61v-682q0 -24 11 -43.5t30.5 -31t43.5 -11.5h512q35 0 60 25t25 61v512zM256 59l128 164l91 -110l128 165l165 -219h-512zM550 428v235l235 -235h-235z" />
    <glyph glyph-name="uniE60F" unicode="&#xe60f;" 
d="M597 715h-341q-35 0 -60 -25t-25 -61v-682q0 -36 24.5 -61t60.5 -25h512q17 0 33 7t27.5 18.5t18 27t6.5 33.5v512zM683 32h-342v85h342v-85zM683 203h-342v85h342v-85zM555 416v235l234 -235h-234z" />
    <glyph glyph-name="uniE610" unicode="&#xe610;" 
d="M683 769h-342q-34 0 -63.5 -17t-47 -46.5t-17.5 -64.5v-682q0 -53 37.5 -90.5t90.5 -37.5h342q34 0 63.5 17t47 46.5t17.5 64.5v682q0 53 -37.5 90.5t-90.5 37.5zM597 -84h-170v43h170v-43zM736 44h-448v597h448v-597z" />
    <glyph glyph-name="uniE611" unicode="&#xe611;" 
d="M298 343l-170 -171l170 -171v128h299v86h-299v128zM896 428l-170 171v-128h-299v-86h299v-128z" />
    <glyph glyph-name="uniE612" unicode="&#xe612;" 
d="M597 727h-341q-23 0 -42.5 -11.5t-31 -31t-11.5 -43.5v-682q0 -12 3 -23t8.5 -20.5t13 -17.5t17 -13.5t20.5 -8.5t23 -3h512q23 0 43 11.5t31 31t11 43.5v512zM518 279h-106v-64h106v-64h-106v-150h-64v342h170v-64zM668 1h-64v342h64v-342zM550 428v235l235 -235h-235z
" />
    <glyph glyph-name="uniE613" unicode="&#xe613;" 
d="M597 727h-341q-35 0 -60 -25t-25 -61v-682q0 -36 24.5 -61t60.5 -25h512q35 0 60 25t25 61v512zM619 172q0 -18 -12.5 -30.5t-30.5 -12.5h-107v-149h-64v363h171q12 0 21.5 -6t15.5 -15.5t6 -21.5v-128zM550 428v235l235 -235h-235zM469 279h86v-86h-86v86z" />
    <glyph glyph-name="uniE614" unicode="&#xe614;" 
d="M597 727h-341q-35 0 -60 -25t-25 -61v-682q0 -36 24.5 -61t60.5 -25h512q17 0 33 7t27.5 18.5t18 27t6.5 33.5v512zM718 1l-156 91v-91h-256v256h256v-90l156 90v-256zM550 428v235l235 -235h-235z" />
    <glyph glyph-name="uniE615" unicode="&#xe615;" 
d="M152 676h305q9 0 14.5 -6t7.5 -18.5t2.5 -20.5t0 -25.5t-0.5 -22.5v-169q0 -6 0.5 -21.5t0 -24t-1.5 -19.5t-5.5 -17.5t-11.5 -9.5t-21 -3.5t-33.5 0.5t-23.5 1h-162q-7 0 -19.5 -0.5t-20.5 -0.5t-19 1t-17.5 3.5t-11.5 7.5t-6 13v309q3 9 8.5 15t14.5 8zM194 607v-220
h220v223h-219q-1 0 -1 -3zM562 676h305q6 -2 11 -5.5t8 -9t4 -12.5v-301q-1 -5 -2.5 -9t-4 -7.5t-6.5 -6.5t-8 -4q-9 -2 -22 -2.5t-30.5 0.5t-24.5 1h-157q-6 0 -15 -0.5t-17 -1t-16.5 -0.5t-16 0.5t-12.5 2.5q-8 3 -12.5 9.5t-6.5 19t-2 21.5t0.5 25.5t0.5 22.5v158
q0 8 -0.5 25.5t-0.5 27t2 21.5t7.5 18t15.5 7zM604 607v-220h220v223h-219q-2 0 -1 -3zM294 542q23 5 39 -8t17 -35q0 -18 -10.5 -30.5t-25.5 -15t-31 3.5q-12 7 -18 20t-5 26.5t10 24.5t24 14zM704 542q39 8 51 -26q10 -30 -10 -51q-16 -15 -41 -12q-16 3 -25 16t-9.5 28
t8.5 28.5t26 16.5zM455 -96h-302q-9 3 -15.5 9t-8.5 16v308q6 19 20 23q9 2 22 2.5t30.5 -0.5t24.5 -1h156q7 0 19 0.5t21.5 1t20 0t17.5 -2.5t11.5 -8t6.5 -13t3 -17.5t1 -19t-0.5 -21t-0.5 -19.5v-162v-63q-6 -30 -26 -33zM194 191v-220h220v223h-219q-1 0 -1 -3zM890 233
v-86q-1 -7 -0.5 -46t-0.5 -47h-218v50q-9 1 -21 1h-24h-22q-2 -17 -1.5 -99.5t0.5 -101.5h-40q-10 2 -16 8.5t-8 18.5t-2 21.5t0.5 27t0.5 24.5v158q0 7 -0.5 19.5t-1 22t0 20.5t2.5 17q2 5 4.5 8.5t7 5.5t8 3.5t11 2t11.5 0.5h13h13h148v-136h69v45v46q0 26 1 45
q17 0 31 -0.5t23.5 -7t10.5 -20.5zM300 128q25 2 40.5 -17.5t6.5 -45.5q-9 -23 -33.5 -27t-42.5 12.5t-10.5 45t39.5 32.5zM745 -96h-74v41q0 33 1 39h73v-80zM890 -16v-52q-4 -21 -24 -28h-52q0 8 -0.5 41t1.5 39h75z" />
    <glyph glyph-name="uniE616" unicode="&#xe616;" 
d="M853 486l-170 -171l-171 171l-171 -171l-170 171v-342h682v0v341v1zM171 59h682v-85h-682v85zM213 584zM171 584q0 6 1.5 11.5t4 10t6.5 8.5t8.5 6.5t10.5 4t11 1.5q18 0 30.5 -12.5t12.5 -29.5q0 -7 -2 -13.5t-6 -12t-9.5 -9.5t-12 -6t-13.5 -2q-17 0 -29.5 12.5
t-12.5 30.5zM512 584zM469 583.5q0 17.5 12.5 30t30.5 12.5t30.5 -12.5t12.5 -29.5q0 -7 -2.5 -13.5t-6.5 -12t-9 -9.5t-11.5 -6t-13.5 -2q-18 0 -30.5 12.5t-12.5 30zM811 584zM768 583.5q0 17.5 12.5 30t30 12.5t30 -12.5t12.5 -29.5q0 -7 -2 -13.5t-6 -12t-9 -9.5
t-11.5 -6t-13.5 -2q-18 0 -30.5 12.5t-12.5 30z" />
    <glyph glyph-name="uniE617" unicode="&#xe617;" 
d="M85 598v-597q0 -35 25 -60t61 -25h682q36 0 61 25t25 60v85h-86v-85h-682v598h682v-85h86v84q0 36 -25 61t-61 25h-682q-18 0 -33.5 -7t-27 -18.5t-18.5 -27t-7 -33.5zM765 343h-426v-86h426v-128l171 171l-171 171v-128z" />
    <glyph glyph-name="uniE618" unicode="&#xe618;" 
d="M853 343h-519l238 238l-60 60l-341 -341l341 -341l60 60l-238 238h519v86z" />
    <glyph glyph-name="uniE619" unicode="&#xe619;" 
d="M299 215l213 213l213 -213h-426z" />
    <glyph glyph-name="uniE61A" unicode="&#xe61a;" 
d="M512 641l-60 -60l238 -238h-519v-86h519l-238 -238l60 -60l341 341z" />
    <glyph glyph-name="uniE61B" unicode="&#xe61b;" 
d="M658 496l-61 60l-256 -256l256 -256l61 60l-196 196z" />
    <glyph glyph-name="uniE61C" unicode="&#xe61c;" 
d="M427 556l-61 -60l196 -196l-196 -196l61 -60l256 256z" />
    <glyph glyph-name="uniE61D" unicode="&#xe61d;" 
d="M753 541q-31 31 -68.5 53.5t-82 34.5t-90.5 12q-93 0 -171.5 -45.5t-124 -124t-45.5 -171.5t45.5 -171.5t124 -124t171.5 -45.5q118 0 209.5 72t120.5 184h-89q-27 -76 -92.5 -123.5t-148.5 -47.5q-52 0 -99.5 20.5t-81.5 54.5t-54.5 81.5t-20.5 99.5q0 106 75 181
t181 75q105 0 180 -76l-137 -137h298v298z" />
    <glyph glyph-name="uniE61E" unicode="&#xe61e;" 
d="M128 44h768v85h-768v-85zM128 257h768v86h-768v-86zM128 556v-85h768v85h-768z" />
    <glyph glyph-name="uniE61F" unicode="&#xe61f;" 
d="M256 44q0 -18 12.5 -30.5t30.5 -12.5h42v-149q0 -27 19 -45.5t45.5 -18.5t45 18.5t18.5 45.5v149h86v-149q0 -27 18.5 -45.5t45 -18.5t45.5 18.5t19 45.5v149h42q7 0 13.5 2.5t12 6.5t9.5 9t6 11.5t2 13.5v427h-512v-427zM149 471q-17 0 -32 -8.5t-23.5 -23.5t-8.5 -32
v-299q0 -13 5 -25t14 -20.5t20.5 -13.5t24.5 -5q27 0 45.5 18.5t18.5 45.5v299q0 26 -18.5 45t-45.5 19zM875 471q-18 0 -32.5 -8.5t-23 -23.5t-8.5 -32v-299q0 -13 5 -25t13.5 -20.5t20.5 -13.5t25 -5q26 0 45 18.5t19 45.5v299q0 26 -19 45t-45 19zM663 720l55 55
q7 7 7 15.5t-7 15.5q-3 3 -7 4.5t-8 1.5t-8 -1.5t-7 -4.5l-63 -63q-17 8 -35 14t-38 9t-40 3q-10 0 -20 -0.5t-20 -2t-19.5 -4t-18.5 -5.5t-18 -6.5t-18 -8.5l-63 64q-3 3 -7 4.5t-8 1.5t-8 -1.5t-7 -4.5q-6 -6 -6 -15t6 -15l56 -56q-49 -36 -77 -90t-28 -117h512
q0 63 -28.5 117t-76.5 90zM427 599h-43v42h43v-42zM640 599h-43v42h43v-42z" />
    <glyph glyph-name="uniE620" unicode="&#xe620;" 
d="M791 268q0 36 12 70t24.5 53.5t34 39t26.5 23t14 9.5q-21 31 -49 52.5t-55.5 31t-46.5 13.5t-36 4q-35 4 -75 -8t-73 -25.5t-48 -13.5q-17 0 -75 23t-94 22q-65 -1 -121.5 -35.5t-90.5 -92.5q-22 -38 -32.5 -84t-10 -92t8.5 -93.5t23 -91.5t34 -83.5t42 -71.5
q20 -30 34.5 -48.5t36 -40t44.5 -32t46 -9.5q30 1 78.5 21.5t89.5 20.5q40 0 88 -20.5t81 -20.5q25 1 47 11t42.5 30.5t33.5 37.5t34 47q44 64 71 146q-8 3 -17.5 8t-33 22.5t-41 39t-31.5 58t-15 79.5zM663 648q28 35 43 78t10 86q-26 -1 -54 -11.5t-53.5 -27.5t-43.5 -39
q-10 -11 -19 -25t-16.5 -30t-12.5 -33t-7 -35t1 -35q8 -1 17 -0.5t17.5 2t16.5 4t16.5 5.5t16.5 7t15.5 9t14.5 10t13.5 11t12.5 12z" />
    <glyph glyph-name="uniE621" unicode="&#xe621;" 
d="M938 641q0 36 -24.5 61t-60.5 25h-682q-36 0 -61 -25t-25 -61v-512q0 -35 25 -60t61 -25h597l171 -171zM768 215h-512v85h512v-85zM768 343h-512v85h512v-85zM768 471h-512v85h512v-85z" />
    <glyph glyph-name="uniE622" unicode="&#xe622;" 
d="M704 684q-37 0 -72.5 -11t-66 -31t-53.5 -47q-23 27 -53.5 47t-66 31t-72.5 11q-99 0 -167 -68t-68 -167q0 -26 6 -53t14 -50t26.5 -52t33 -50t44 -53t48.5 -52.5t59 -58t63 -58.5t71 -65l62 -56l62 56q48 44 71 65t63 58.5t59 58t48.5 52.5t44 53t33 50t26.5 52t14 50
t6 53q0 99 -68 167t-167 68zM516 20l-4 -4l-4 4q-50 45 -74 67t-64 60t-59 58.5t-47 51.5t-41 52t-27.5 46.5t-19.5 48.5t-5 45q0 42 19.5 76.5t53.5 54t76 19.5q24 0 48 -8t44 -21t36 -31.5t24 -40.5h80q11 29 34.5 52t54.5 36t63 13q25 0 48 -7.5t41.5 -21t32 -32
t20.5 -41t7 -48.5t-9 -53.5t-21 -52t-39.5 -58t-48 -57t-64.5 -65t-71 -66.5t-84 -77z" />
    <glyph glyph-name="uniE623" unicode="&#xe623;" 
d="M512 -99l-62 56q-48 44 -71 65t-63 58.5t-59 58t-48.5 52.5t-44 53t-33 50t-26.5 52t-14 50t-6 53q0 65 31 119t85 85t119 31q55 0 106 -24t86 -65q35 41 86 65t106 24q65 0 119 -31t85 -85t31 -119q0 -24 -4 -47t-14 -47t-19 -44.5t-29 -47t-34 -45.5t-42.5 -48.5
t-46.5 -48t-54.5 -52.5t-57.5 -53.5t-64 -58.5z" />
    <glyph glyph-name="uniE624" unicode="&#xe624;" 
d="M614 556l-17 85h-384v-725h86v299h239l17 -86h298v427h-239z" />
    <glyph glyph-name="uniE625" unicode="&#xe625;" 
d="M512 727q-116 0 -214 -57t-155.5 -155.5t-57.5 -214.5t57.5 -214.5t155.5 -155.5t214 -57t214.5 57t155.5 155.5t57 214.5t-57 214.5t-155.5 155.5t-214.5 57zM555 1h-86v86h86v-86zM643 332l-38 -39q-27 -27 -38.5 -52t-11.5 -69h-86v21q0 71 50 121l53 54
q12 12 18.5 27.5t6.5 32.5q0 23 -11 43t-31 31t-43 11q-35 0 -60 -25t-25 -60h-86q0 71 50 121t121 50q35 0 66.5 -13.5t54.5 -36.5t36.5 -54.5t13.5 -66.5q0 -28 -10.5 -52.5t-29.5 -43.5z" />
    <glyph glyph-name="uniE626" unicode="&#xe626;" 
d="M427 -41v256h170v-256h214v341h128l-427 384l-427 -384h128v-341h214z" />
    <glyph glyph-name="uniE627" unicode="&#xe627;" 
d="M384 684l-171 -170h128v-299h86v299h128zM683 86v299h-86v-299h-128l171 -170l171 170h-128z" />
    <glyph glyph-name="uniE628" unicode="&#xe628;" 
d="M768 471h-43v85q0 58 -28.5 107t-77.5 77.5t-107 28.5q-88 0 -150.5 -62.5t-62.5 -150.5v-85h-43q-35 0 -60 -25t-25 -61v-426q0 -36 25 -61t60 -25h512q35 0 60 25t25 61v426q0 36 -25 61t-60 25zM512 87q-35 0 -60 25t-25 60t25 60t60 25q12 0 23 -3t20 -8.5t17 -13.5
t13.5 -17t8.5 -20t3 -23q0 -48 -41 -73q-21 -12 -44 -12zM644 471h-264v85q0 27 10.5 51.5t28 42t42 28t51.5 10.5q55 0 93.5 -38.5t38.5 -93.5v-85z" />
    <glyph glyph-name="uniE629" unicode="&#xe629;" 
d="M597 727h-341q-35 0 -60 -25t-25 -61v-682q0 -36 24.5 -61t60.5 -25h512q35 0 60 25t25 61v512zM683 129h-128v-128h-86v128h-128v86h128v128h86v-128h128v-86zM555 428v235l234 -235h-234z" />
    <glyph glyph-name="uniE62A" unicode="&#xe62a;" 
d="M469 684h86v-427h-86v427zM709 536l-61 -60q37 -23 64 -56t42.5 -75t15.5 -88q0 -106 -75.5 -181.5t-182.5 -75.5q-70 0 -129.5 34.5t-94 93.5t-34.5 129q0 47 16.5 90.5t45.5 77.5t68 56l-61 61q-70 -47 -111 -122t-41 -163q0 -92 45.5 -171t124 -124.5t171.5 -45.5
q69 0 132.5 27t109 73t72.5 109t27 132q0 85 -38.5 158.5t-105.5 120.5z" />
    <glyph glyph-name="uniE62B" unicode="&#xe62b;" 
d="M829 258q3 24 3 42q0 10 -1 20t-2 22l90 70q14 11 5 28l-85 147q-4 7 -11.5 9.5t-14.5 0.5l-106 -43q-34 26 -72 42l-16 113q-1 5 -4 9t-7.5 6.5t-10.5 2.5h-170q-8 0 -14 -5.5t-7 -12.5l-16 -113q-39 -17 -73 -42l-106 43q-17 6 -26 -10l-85 -147q-9 -16 5 -28l90 -70
q-1 -6 -1 -11l-2 -10v-11v-10q0 -18 3 -42l-90 -70q-14 -11 -5 -27l85 -148q4 -7 11.5 -9.5t14.5 0.5l106 42q17 -12 35 -23t38 -19l16 -113q0 -5 3 -9t7.5 -6.5t10.5 -2.5h170q8 0 14 5.5t7 12.5l16 113q39 17 73 42l106 -42q7 -3 14.5 -0.5t11.5 9.5l85 148q9 15 -5 27z
M512 151q-62 0 -105.5 43.5t-43.5 105.5t43.5 105.5t105.5 43.5t105.5 -43.5t43.5 -105.5q0 -30 -11.5 -58t-31.5 -48t-48 -31.5t-58 -11.5z" />
    <glyph glyph-name="uniE62C" unicode="&#xe62c;" 
d="M768 126q-48 0 -84 -33l-304 177q4 16 4 30q0 7 -1 14.5t-3 15.5l301 175q11 -10 25 -18t29.5 -12t32.5 -4q53 0 90.5 37.5t37.5 90.5q0 26 -10 49.5t-27.5 41t-41 27.5t-49.5 10t-49.5 -10t-41 -27.5t-27.5 -41t-10 -49.5q0 -5 0.5 -10t1.5 -10l2 -10l-301 -176
q-4 4 -8.5 8t-9.5 7t-11 6l-10 4q-6 3 -11.5 4.5t-11.5 3t-12.5 2t-12.5 0.5q-35 0 -64.5 -17t-46.5 -46.5t-17 -64.5t17 -64.5t46.5 -46.5t64.5 -17q10 0 20 1.5t19 4.5t17.5 7t16 9.5t14.5 12.5l304 -178q-3 -14 -3 -28q0 -11 2 -22t5.5 -21t9 -19.5t12.5 -17.5t15 -15
t17.5 -12t19.5 -9t21 -6t22 -2q52 0 88 36.5t36 88t-36 88t-88 36.5z" />
    <glyph glyph-name="uniE62D" unicode="&#xe62d;" 
d="M939 396l-307 27l-120 282l-120 -283l-307 -26l233 -201l-70 -300l264 159l264 -159l-70 300zM512 134v396l73 -172l187 -16l-142 -123l43 -183z" />
    <glyph glyph-name="uniE62E" unicode="&#xe62e;" 
d="M939 418l-307 26l-120 283l-120 -283l-307 -26l233 -202l-70 -300l264 159l264 -159l-70 300zM512 155l-160 -97l42 183l-141 123l186 16l73 172l73 -173l187 -16l-142 -123l43 -182z" />
    <glyph glyph-name="uniE62F" unicode="&#xe62f;" 
d="M512 75l264 -159l-70 300l233 202l-307 26l-120 283l-120 -283l-307 -26l233 -202l-70 -300z" />
    <glyph glyph-name="uniE630" unicode="&#xe630;" 
d="M896 599q0 35 -25 60t-60 25h-598q-35 0 -60 -25t-25 -60v-598q0 -35 25 -60t60 -25h598q35 0 60 25t25 60v598zM213 1v598h598v-598h-598zM452 229l-93 92l-60 -60l153 -153l273 273l-61 61z" />
    <glyph glyph-name="uniE631" unicode="&#xe631;" 
d="M811 684h-598q-35 0 -60 -25t-25 -60v-598q0 -23 11.5 -42.5t31 -31t42.5 -11.5h598q35 0 60 25t25 60v598q0 35 -25 60t-60 25zM811 1h-598v598h598v-598z" />
    <glyph glyph-name="uniE632" unicode="&#xe632;" 
d="M128 428h597v85h-597v-85zM128 257h597v86h-597v-86zM128 87h597v85h-597v-85zM811 87h85v85h-85v-85zM811 513v-85h85v85h-85zM811 257h85v86h-85v-86z" />
    <glyph glyph-name="uniE633" unicode="&#xe633;" 
d="M811 684h-43v85h-85v-85h-342v85h-85v-85h-43q-35 0 -60 -25t-25 -60v-598q0 -35 25 -60t60 -25h598q35 0 60 25t25 60v598q0 35 -25 60t-60 25zM811 1h-598v470h598v-470z" />
    <glyph glyph-name="uniE634" unicode="&#xe634;" 
d="M683 769h-512q-36 0 -61 -25t-25 -60v-597h86v597h512v85zM811 599h-470q-35 0 -60 -25t-25 -61v-597q0 -35 25 -60t60 -25h470q35 0 60 25t25 60v597q0 36 -25 61t-60 25zM811 -84h-470v597h470v-597z" />
    <glyph glyph-name="uniE635" unicode="&#xe635;" 
d="M256 1q0 -35 25 -60t60 -25h342q35 0 60 25t25 60v512h-512v-512zM811 641h-150l-42 43h-214l-42 -43h-150v-85h598v85z" />
    <glyph glyph-name="uniE636" unicode="&#xe636;" 
d="M384 122l-178 178l-60 -60l238 -239l512 512l-60 61z" />
    <glyph glyph-name="uniE637" unicode="&#xe637;" 
d="M128 76v-160h160l472 472l-160 160zM883 511q13 13 13 30.5t-13 30.5l-99 99q-8 9 -19 11.5t-22 0t-20 -11.5l-78 -78l160 -160z" />
    <glyph glyph-name="uniE638" unicode="&#xe638;" 
d="M811 428h-171v256h-256v-256h-171l299 -299zM213 44v-85h598v85h-598z" />
    <glyph glyph-name="uniE639" unicode="&#xe639;" 
d="M384 129h256v256h171l-299 299l-299 -299h171v-256zM213 44h598v-85h-598v85z" />
    <glyph glyph-name="uniE63A" unicode="&#xe63a;" 
d="M512 727q-116 0 -214.5 -57t-155.5 -155.5t-57 -214.5t57 -214t155.5 -155.5t214.5 -57.5t214.5 57.5t155.5 155.5t57 214q0 70 -21.5 135t-61 117.5t-92 92t-117.5 61t-135 21.5zM555 1h-86v86h86v-86zM643 332l-38 -39q-27 -27 -38.5 -52t-11.5 -69h-86v21q0 71 50 121
l53 54q12 12 18.5 27.5t6.5 32.5q0 35 -25 60t-60 25t-60 -25t-25 -60h-86q0 71 50 121t121 50t121 -50t50 -121q0 -28 -10.5 -52.5t-29.5 -43.5z" />
    <glyph glyph-name="uniE63B" unicode="&#xe63b;" 
d="M469 87h86v256h-86v-256zM512 727q-116 0 -214.5 -57t-155.5 -155.5t-57 -214.5t57 -214t155.5 -155.5t214.5 -57.5t214.5 57.5t155.5 155.5t57 214q0 70 -21.5 135t-61 117.5t-92 92t-117.5 61t-135 21.5zM512 -41q-69 0 -132.5 27t-109 72.5t-72.5 109t-27 132.5
q0 93 45.5 171.5t124 124t171.5 45.5t171.5 -45.5t124 -124t45.5 -171.5t-45.5 -171.5t-124 -124t-171.5 -45.5zM469 428h86v85h-86v-85z" />
    <glyph glyph-name="uniE63C" unicode="&#xe63c;" 
d="M512 727q-116 0 -214.5 -57t-155.5 -155.5t-57 -214.5t57 -214t155.5 -155.5t214.5 -57.5t214.5 57.5t155.5 155.5t57 214q0 70 -21.5 135t-61 117.5t-92 92t-117.5 61t-135 21.5zM555 87h-86v256h86v-256zM555 428h-86v85h86v-85z" />
    <glyph glyph-name="uniE63D" unicode="&#xe63d;" 
d="M86 -84l895 384l-895 384l-1 -299l640 -85l-640 -85z" />
    <glyph glyph-name="uniE63E" unicode="&#xe63e;" 
d="M811 684h-43v85h-85v-85h-342v85h-85v-85h-43q-35 0 -60 -25t-25 -60v-598q0 -35 25 -60t60 -25h598q35 0 60 25t25 60v598q0 35 -25 60t-60 25zM811 1h-598v470h598v-470zM299 385h213v-213h-213v213z" />
    <glyph glyph-name="uniE63F" unicode="&#xe63f;" 
d="M171 215h170v170h-170v-170zM171 1h170v171h-170v-171zM171 428h170v171h-170v-171zM384 215h512v170h-512v-170zM384 1h512v171h-512v-171zM384 599v-171h512v171h-512z" />
    <glyph glyph-name="uniE640" unicode="&#xe640;" 
d="M171 343h213v256h-213v-256zM171 44h213v256h-213v-256zM427 44h213v256h-213v-256zM683 44h213v256h-213v-256zM427 343h213v256h-213v-256zM683 599v-256h213v256h-213z" />
    <glyph glyph-name="uniE641" unicode="&#xe641;" 
d="M512 513q88 0 150.5 -62.5t62.5 -150.5q0 -40 -15 -78l125 -125q99 83 147 203q-28 70 -75 129t-107.5 101.5t-134.5 66t-153 23.5q-87 0 -170 -30l92 -92q39 15 78 15zM85 630l98 -98l19 -19q-109 -86 -159 -213q56 -143 183.5 -231.5t285.5 -88.5q49 0 96 9t91 27
l18 -18l125 -125l54 55l-756 756zM321 394l66 -66q-3 -15 -3 -28q0 -53 37.5 -90.5t90.5 -37.5q13 0 28 3l66 -66q-46 -22 -94 -22q-88 0 -150.5 62.5t-62.5 150.5q0 48 22 94zM505 427l134 -134l1 7q0 35 -17 64.5t-46.5 46.5t-64.5 17q-7 0 -7 -1z" />
    <glyph glyph-name="uniE642" unicode="&#xe642;" 
d="M512 620q-79 0 -153 -23.5t-134.5 -66t-107.5 -101.5t-74 -129q56 -143 183.5 -231.5t285.5 -88.5t285.5 88.5t183.5 231.5q-37 94 -106 166t-163.5 113t-199.5 41zM512 87q-88 0 -150.5 62.5t-62.5 150.5t62.5 150.5t150.5 62.5q25 0 49 -5.5t45 -16t39.5 -25t33 -33
t25 -39.5t16 -45t5.5 -49q0 -97 -73 -161q-61 -52 -140 -52zM512 428q-53 0 -90.5 -37.5t-37.5 -90.5t37.5 -90.5t90.5 -37.5q35 0 64.5 17t46.5 46.5t17 64.5q0 53 -37.5 90.5t-90.5 37.5z" />
    <glyph glyph-name="uniE643" unicode="&#xe643;" 
d="M640.5 300q70.5 0 120.5 50t50 120.5t-50 120.5t-120.5 50t-120.5 -50t-50 -120.5t50 -120.5t120.5 -50zM641 215q-46 0 -102.5 -11.5t-111 -31.5t-91.5 -54t-37 -74v-85h683v85q0 27 -17.5 52t-46 43t-64.5 33t-74.5 24t-74 14t-64.5 5zM339 251l34 59q4 7 -2 11l-36 28
q1 5 1 9v8q0 7 -1 17l36 28q6 4 2 11l-34 59q-4 6 -10 4l-43 -17q-3 2 -5.5 3.5t-5.5 3.5t-6 3l-6 4l-6 2l-6 46q-1 7 -9 7h-68q-6 -2 -8 -7l-7 -46q-8 -3 -15 -7t-14 -9l-42 17q-7 2 -11 -4l-34 -59q-3 -6 2 -11l36 -28q0 -5 -0.5 -9t-0.5 -8q0 -7 1 -17l-36 -28
q-5 -4 -2 -11l34 -59q2 -3 5 -4t6 0l42 18q14 -11 29 -17l7 -45q0 -3 2.5 -5.5t5.5 -2.5h68q8 0 9 8l6 45q16 6 29 17l43 -18h3q2 0 4 1t3 3zM208 306q-16 0 -30 8t-22 22t-8 30q0 25 17.5 42.5t42.5 17.5q10 0 19 -3t16.5 -8.5t13 -13t8.5 -16.5t3 -19q0 -25 -17.5 -42.5
t-42.5 -17.5z" />
    <glyph glyph-name="uniE644" unicode="&#xe644;" 
d="M244 339q-4 8 -4 22q0 8 5 21q2 6 5 11t5 8q0 5 1 10.5t2.5 12.5t4 11.5t5.5 6.5q0 20 4.5 40.5t13.5 41.5t22 42q39 64 93 90q60 28 139 28q57 0 114 -24q21 -9 38 -20q9 -6 16.5 -12t14.5 -12q4 -4 8 -9l8 -10q4 -5 7 -10q6 -9 10.5 -16.5t7.5 -15.5l4 -8
q2 -4 3.5 -8.5t3.5 -9.5t3 -10q7 -21 11 -39q2 -5 3.5 -11.5t3 -14t3.5 -16.5v-2q12 -17 18 -33.5t6 -30.5q0 -6 -4 -17q-2 -6 -3 -10t-1 -6v-1h1v-2l1 -1q1 -1 1 -2q33 -48 51.5 -91.5t18.5 -89.5q0 -9 -2 -19.5t-6 -23.5q-8 -24 -24 -24q-2 0 -4 0.5t-4 2.5l-4 2l-2 3
q-1 1 -2 3l-2 2l-2 2l-2 4l-3 3q-2 3 -3 6l-3 5q-3 5 -6 11q-4 7 -4 8h-1l-2 -2q-7 -16 -13.5 -30t-13.5 -26t-14.5 -22t-15.5 -17q9 -9 26.5 -17t29.5 -17.5t15 -27.5q0 -1 -0.5 -3t-1.5 -4q0 -5 -3 -8q-27 -41 -129 -41q-23 0 -47.5 3.5t-41.5 8.5q-5 1 -10 2.5t-10.5 3
t-11.5 3.5t-13 4t-10 3q-6 2 -20 2h-17q-9 -9 -22.5 -16t-32.5 -11q-37 -9 -72 -9h-14q-8 0 -15 1q-15 0 -40 4q-13 1 -23.5 3.5t-19.5 4.5q-18 6 -32 17.5t-14 27.5q0 17 4 25q2 5 6.5 10t11.5 11q4 1 17 6q6 2 11.5 3.5t9.5 1.5h2q2 0 4 1l1 1l-1 2q-20 4 -46 44.5
t-31 67.5l-3 1l-2 -2l-3 -6q-7 -18 -23 -32.5t-33 -15.5h-1q-1 0 -1.5 0.5t-0.5 1.5q-1 2 -2 2q-5 12 -7.5 22.5t-2.5 20.5q0 118 108 200z" />
    <glyph glyph-name="uniE645" unicode="&#xe645;" 
d="M895 392q-6 16 -22 19l-232 35l-103 222q-8 16 -25 16q-8 0 -15 -4.5t-10 -11.5l-105 -221l-232 -35q-16 -2 -21.5 -18t6.5 -28l168 -173l-40 -244q-3 -17 11 -27t29 -2l207 114l207 -115q7 -3 14 -3q3 0 6.5 0.5t6 2t5 3.5t4.5 4l2 6q2 2 3 5t1 6q0 2 -0.5 3.5t-1 3.5
t-0.5 3l-39 239l169 172q12 12 7 28zM618 145h-212v26l157 193h-143v31h193v-29l-159 -191h164v-30zM618 145z" />
    <glyph glyph-name="uniE646" unicode="&#xe646;" 
d="M447 681v-243q0 -63 -16 -120.5t-47 -109.5q-63 -103 -165 -153q-91 108 -91 248q0 93 42 174t114.5 135t162.5 69zM694 -33q-85 -47 -184 -47q-98 0 -183 47q69 43 117.5 105t65.5 134q18 -72 67 -134q24 -31 53.5 -57.5t63.5 -47.5zM896 303q0 -20 -2 -39.5t-5.5 -38
t-9 -37t-13 -35.5t-16.5 -34t-20.5 -33t-24.5 -31q-102 50 -165 153.5t-63 229.5v243q89 -15 162 -69t115 -135t42 -174z" />
    <glyph glyph-name="uniE647" unicode="&#xe647;" 
d="M692 435q-13 2 -29 2q-71 0 -130 -32q-10 -5 -19 -11t-17.5 -13t-16 -14t-14.5 -15t-13.5 -16.5t-12.5 -17.5q-34 -55 -34 -120q0 -16 2.5 -32t7.5 -31q-15 -1 -29 -1q-10 0 -20.5 0.5t-23 2.5t-18.5 3t-23 4l-20 5l-106 -53l30 91q-121 84 -121 204q0 70 41 129.5
t110 93t151 34.5q74 0 139 -27.5t109 -76.5t57 -109zM317 454q10 10 10 27q0 9 -2.5 16t-7.5 12q-12 10 -28 10q-18 0 -31.5 -10.5t-13.5 -27.5q0 -16 13 -27q5 -3 10 -5.5t10.5 -3.5t11.5 -1q17 0 28 10zM939 202q0 -25 -7.5 -48t-21.5 -45q-28 -45 -77 -81l23 -75l-83 45
q-13 -3 -24 -5.5t-20.5 -4.5t-18 -3t-15.5 -1.5t-13 -0.5q-70 0 -129.5 29t-93.5 79.5t-34 110t34 110t93.5 80t129.5 29.5q67 0 126 -29.5t95 -80.5q18 -25 27 -52.5t9 -56.5zM528 454q10 10 10 27q0 6 -1 11t-3.5 9t-5.5 8q-10 10 -27 10q-9 0 -17 -2.5t-15 -7.5
q-14 -11 -14 -28q0 -16 14 -26.5t32 -10.5q17 0 27 10zM637 270q0 12 -11 21q-4 3 -8 5t-9 3t-10 1q-12 0 -21 -9q-5 -5 -7 -10t-2 -11t2 -11t7 -10q9 -9 21 -9q16 0 27 9t11 21zM803 270q0 4 -1.5 7.5t-3.5 7t-6 6.5q-11 9 -27 9q-11 0 -21 -9q-4 -5 -6.5 -10t-2.5 -11
t2.5 -11t6.5 -10q10 -9 21 -9q16 0 27 9t11 21z" />
    <glyph glyph-name="uniE648" unicode="&#xe648;" 
d="M528 743q-87 0 -166 -33.5t-136.5 -90.5t-91 -136t-33.5 -166q0 -116 57 -214.5t155.5 -155.5t214 -57t214 57t155.5 155.5t57 214.5t-57 214t-155.5 155t-213.5 57zM868 317q0 -43 -10 -83.5t-29 -76.5l-301 159v341q92 0 170.5 -45.5t124 -124t45.5 -170.5z" />
    <glyph glyph-name="uniE649" unicode="&#xe649;" 
d="M512 727q-116 0 -214.5 -57t-155.5 -155.5t-57 -214.5t57 -214t155.5 -155.5t214.5 -57.5t214.5 57.5t155.5 155.5t57 214t-57.5 214.5t-155.5 155.5t-214 57z" />
    <glyph glyph-name="uniE64A" unicode="&#xe64a;" 
d="M512 727q-116 0 -214.5 -57t-155.5 -155.5t-57 -214.5t57 -214t155.5 -155.5t214.5 -57.5t214.5 57.5t155.5 155.5t57 214t-57.5 214.5t-155.5 155.5t-214 57zM512 -41q-56 0 -108 17.5t-93.5 49t-73 73t-49 93.5t-17.5 108q0 93 45.5 171.5t124 124t171.5 45.5
q56 0 108 -17.5t93.5 -49t73 -73t49 -93.5t17.5 -108q0 -93 -45.5 -171.5t-124 -124t-171.5 -45.5z" />
    <glyph glyph-name="uniE64B" unicode="&#xe64b;" 
d="M576 783q32 -113 32 -204q0 -44 -18 -80.5t-51.5 -58t-76.5 -21.5q-66 0 -110.5 46.5t-44.5 113.5l1 15q-65 -79 -101 -176t-36 -203q0 -93 45.5 -171.5t124 -124.5t171.5 -46t171.5 46t124 124.5t45.5 171.5q0 168 -74.5 317t-202.5 251zM500 1q-57 0 -97.5 39.5
t-40.5 94.5q0 52 31.5 87t88.5 46q61 13 113.5 41t83.5 69q13 -41 19 -84.5t6 -87.5q0 -94 -71 -155q-58 -49 -133 -50z" />
    <glyph glyph-name="uniE64C" unicode="&#xe64c;" 
d="M213 250v-171l299 -163l299 163v171l-299 -163zM512 684l-469 -256l469 -256l384 210v-295h85v341z" />
    <glyph glyph-name="uniE64D" unicode="&#xe64d;" 
d="M683 343q53 0 90 37.5t37 90.5q0 34 -17 63.5t-46.5 47t-63.5 17.5q-26 0 -50 -10.5t-41 -27.5t-27 -40.5t-10 -49.5q0 -35 17 -64.5t46.5 -46.5t64.5 -17zM341 343q35 0 64.5 17t46.5 46.5t17 64.5q0 53 -37.5 90.5t-90.5 37.5t-90.5 -37.5t-37.5 -90.5t37.5 -90.5
t90.5 -37.5zM341.5 257q-39.5 0 -89 -9.5t-97.5 -27t-80 -47.5t-32 -65v-107h597v107q0 35 -32.5 65t-80 47.5t-97 27t-89 9.5zM683 257h-13q-7 0 -14 -0.5t-15 -1.5q84 -60 84 -147v-107h256v107q0 35 -32 65t-80 47.5t-97.5 27t-88.5 9.5z" />
    <glyph glyph-name="uniE64E" unicode="&#xe64e;" 
d="M341 385h-128v128h-85v-128h-128v-85h128v-128h85v128h128v85zM768 343q35 0 64 17t46.5 46.5t17.5 64.5q0 53 -37.5 90.5t-90.5 37.5q-20 0 -39 -7q18 -26 28.5 -57t10.5 -64q0 -67 -39 -122q19 -6 39 -6zM555 343q53 0 90 37.5t37 90.5t-37 90.5t-90 37.5t-90.5 -37.5
t-37.5 -90.5q0 -35 17 -64.5t46.5 -46.5t64.5 -17zM837 251q11 -10 20 -20t16 -22t12 -24.5t8 -26.5t3 -29v-85h128v85q0 63 -110 102q-37 12 -77 20zM555 257q-22 0 -49 -3.5t-55.5 -10.5t-55.5 -18t-48.5 -24.5t-34.5 -32t-13 -39.5v-85h512v85q0 25 -18.5 46.5t-47.5 36
t-63.5 25t-67.5 15.5t-59 5z" />
    <glyph glyph-name="uniE64F" unicode="&#xe64f;" 
d="M896 599v-598h85v598h-85zM725 1h86v598h-86v-598zM597 599h-512q-17 0 -29.5 -12.5t-12.5 -30.5v-512q0 -18 12.5 -30.5t29.5 -12.5h512q18 0 30.5 12.5t12.5 30.5v512q0 12 -5.5 21.5t-15.5 15.5t-22 6zM341 481q40 0 68 -28t28 -68q0 -15 -4.5 -30t-13.5 -26.5
t-21 -20.5t-26.5 -14t-30.5 -5q-26 0 -48 13t-35 35t-13 48q0 20 8 37.5t20.5 30.5t30.5 20.5t37 7.5zM533 87h-384v32q0 29 35.5 52.5t78.5 33.5t78.5 10t78 -10t78 -33.5t35.5 -52.5v-32z" />
    <glyph glyph-name="uniE650" unicode="&#xe650;" 
d="M768 513l-60 61l-271 -271l60 -60zM949 574l-452 -452l-178 178l-60 -60l238 -239l512 512zM18 240l238 -239l60 61l-238 238z" />
    <glyph glyph-name="uniE651" unicode="&#xe651;" 
d="M853 -24v495l-256 256h-341q-35 0 -60 -25t-25 -61v-682q0 -36 24.5 -61t60.5 -25h512q14 0 27 4.5t24 12.5l-190 190q-17 -12 -35.5 -19.5t-39.5 -12t-42 -4.5q-88 0 -150.5 62.5t-62.5 151t62.5 151t150.5 62.5t150.5 -62.5t62.5 -151.5q0 -63 -35 -117zM384 257
q0 -53 37.5 -90.5t90.5 -37.5q26 0 49.5 10.5t41 27.5t27.5 40.5t10 49.5q0 35 -17 64.5t-46.5 46.5t-64.5 17q-26 0 -49.5 -10t-41 -27t-27.5 -41t-10 -50z" />
    <glyph glyph-name="uniE652" unicode="&#xe652;" 
d="M512 769q-78 0 -149 -30t-122.5 -81.5t-82 -123t-30.5 -149.5v-298q0 -53 37.5 -90.5t90.5 -37.5h128v341h-171v85q0 124 87.5 211.5t211.5 87.5t211.5 -87.5t87.5 -211.5v-85h-171v-341h171v-43h-299v-85h256q35 0 64.5 17t46.5 46.5t17 64.5v426q0 105 -51.5 193.5
t-140 139.5t-192.5 51z" />
    <glyph glyph-name="uniE653" unicode="&#xe653;" 
d="M597 556l-160 -213l122 -162l-68 -52l-192 256l-256 -341h938z" />
    <glyph glyph-name="uniE654" unicode="&#xe654;" 
d="M811 684h-179q-9 25 -26.5 44t-42 30t-51.5 11q-41 0 -74 -23.5t-46 -61.5h-179q-35 0 -60 -25t-25 -60v-598q0 -35 25 -60t60 -25h598q35 0 60 25t25 60v598q0 35 -25 60t-60 25zM512 684q12 0 21.5 -5.5t15.5 -15.5t6 -22q0 -17 -12.5 -29.5t-30.5 -12.5
q-12 0 -21.5 5.5t-15.5 15.5t-6 21q0 18 12.5 30.5t30.5 12.5zM427 87l-171 170l60 61l111 -111l281 281l60 -60z" />
    <glyph glyph-name="uniE655" unicode="&#xe655;" 
d="M896 44v-43q0 -35 -25 -60t-60 -25h-598q-35 0 -60 25t-25 60v598q0 35 25 60t60 25h598q35 0 60 -25t25 -60v-43h-384q-35 0 -60 -25t-25 -60v-342q0 -35 25 -60t60 -25h384zM512 129h427v342h-427v-342zM683 236q-11 0 -20.5 3t-17.5 9t-14 14t-9 18t-3 20
q0 27 18.5 45.5t45.5 18.5q17 0 32 -8.5t23.5 -23.5t8.5 -32t-8.5 -32t-23.5 -23.5t-32 -8.5z" />
    <glyph glyph-name="uniE656" unicode="&#xe656;" 
d="M128 262h341v427h-341v-427zM128 -79h341v256h-341v-256zM555 -79h341v426h-341v-426zM555 689v-256h341v256h-341z" />
    <glyph glyph-name="uniE657" unicode="&#xe657;" 
d="M853 715h-682q-36 0 -61 -25t-25 -61v-768l171 171h597q36 0 61 25t25 60v512q0 23 -11.5 43t-31.5 31.5t-43 11.5zM384 331h-85v85h85v-85zM555 331h-86v85h86v-85zM725 331h-85v85h85v-85z" />
    <glyph glyph-name="uniE658" unicode="&#xe658;" 
d="M512.5 727q-115.5 0 -214 -57.5t-156 -156t-57.5 -214t57.5 -214t156 -155.5t214 -57t214 57t155.5 155.5t57 214t-57 214t-155.5 156t-214 57.5zM512 -42q-69 0 -132 27.5t-109 73t-73 109t-27 132.5q0 92 45.5 171t124.5 124.5t171.5 45.5t171 -45.5t124.5 -124.5
t46 -171q0 -138 -97 -238q-96 -98 -232 -104h-13zM534 513h-64v-256l222 -137l34 56l-192 115v222z" />
    <glyph glyph-name="uniE659" unicode="&#xe659;" 
d="M43 -127h170v512h-170v-512zM982 342q0 18 -7 33.5t-18.5 27t-27 18.5t-33.5 7h-268l42 196v13q0 21 -17 47l-47 43l-282 -282q-25 -19 -25 -60v-427q0 -10 2 -19.5t6.5 -18t10 -16t13 -13t16 -10t18 -6.5t19.5 -2h384q26 0 46.5 14t30.5 37l133 303q4 9 4 30v85v0z" />
    <glyph glyph-name="uniE65A" unicode="&#xe65a;" 
d="M495 440v173l-410 -290l410 -291v171q42 0 69.5 -1t67 -6t67 -14t62.5 -26.5t63 -42.5t58 -62t57 -85q0 29 -1.5 54.5t-6.5 63t-13.5 69.5t-25.5 69t-39 67t-56.5 58.5t-76.5 48t-99.5 32t-125.5 12.5z" />
    <glyph glyph-name="uniE65B" unicode="&#xe65b;" 
d="M512 727q-116 0 -214.5 -57t-155.5 -155.5t-57 -214.5t57 -214.5t155.5 -155.5t214.5 -57t214 57t155.5 155.5t57.5 214.5q0 58 -15.5 113.5t-43 102t-67 86t-86 67t-102 43t-113.5 15.5zM807 471h-126q-21 82 -58 152q120 -42 184 -152zM512 640q54 -78 81 -169h-162
q27 91 81 169zM182 215q-6 21 -8.5 42t-2.5 43t2.5 43t8.5 42h144q-6 -47 -6 -85q0 -21 1.5 -42t4.5 -43h-144zM217 129h125q22 -82 59 -152q-120 41 -184 152zM342 471h-125q64 111 184 152q-7 -14 -14 -29t-13.5 -30t-12 -30.5t-10 -31t-9.5 -31.5zM512 -40
q-54 78 -81 169h162q-27 -91 -81 -169zM612 215h-200q-7 47 -7 85q0 21 2 42t5 43h200q7 -47 7 -85q0 -14 -1 -29t-2.5 -28.5t-3.5 -27.5zM623 -23q19 36 33.5 74t25.5 78h125q-31 -53 -78.5 -92t-105.5 -60zM698 215q3 23 4.5 44t1.5 41v18l-2 16v18q-1 8 -2 16.5t-2 16.5
h144q5 -21 8 -42.5t3 -42.5q0 -15 -1 -29.5t-3.5 -28.5t-6.5 -27h-144z" />
    <glyph glyph-name="uniE65C" unicode="&#xe65c;" 
d="M913 318l-383 384q-25 25 -61 25h-298q-8 0 -15.5 -1.5t-14.5 -4t-13.5 -6.5t-12 -8.5t-10 -10t-8.5 -12t-6.5 -13.5t-4 -14.5t-1.5 -15.5v-298q0 -36 26 -61l384 -384q24 -25 60 -25q35 0 60 25l299 299q25 25 25 60q-1 36 -26 61zM235 513q-9 0 -17.5 2.5t-15.5 6.5
t-13 10t-10 13t-6 15.5t-2 16.5q0 27 18.5 45.5t45 18.5t45.5 -18.5t19 -45.5q0 -6 -1.5 -12.5t-4 -12t-6 -11t-7.5 -9.5t-9.5 -7.5t-11 -6t-12 -4t-12.5 -1.5zM737 160l-182 -182l-183 182q-31 32 -31 76q0 29 14.5 53.5t39 39t53.5 14.5q45 0 76 -32l31 -31l31 31
q31 32 75 32q29 0 53.5 -14.5t39 -39t14.5 -53.5q0 -44 -31 -76z" />
    <glyph glyph-name="uniE65D" unicode="&#xe65d;" 
d="M829 196q0 -32 -17.5 -66t-51.5 -65t-80 -56t-108 -39.5t-129 -14.5t-130.5 15.5t-114.5 44t-82 72t-31 95.5q0 54 33.5 116t93.5 123q81 80 163 112t117 -3q31 -30 10 -99q-2 -7 -0.5 -10t4.5 -3h7q4 1 6 2l3 1q66 28 117 28t73 -29q22 -30 0 -85q-1 -6 -2 -9.5t2.5 -6
t5.5 -3.5l8 -3q5 -2 10.5 -4t10.5 -4t10 -4.5t9.5 -5t8.5 -4.5q3 -2 5 -3.5t4.5 -3.5t4.5 -4t4.5 -4t4.5 -4l4 -4l4 -6q2 -2 3.5 -4.5t3.5 -5.5q8 -13 12 -26.5t4 -29.5zM683 198q-5 46 -43 81t-99 52t-131 10q-106 -11 -175.5 -67.5t-62.5 -125.5q4 -46 42 -81t99 -52
t131 -10q106 11 175.5 67.5t63.5 125.5zM534 122q-21 -48 -75 -71q-27 -12 -53.5 -13.5t-53.5 7.5q-51 16 -70 60t3 89q23 45 72.5 66.5t100.5 9.5q52 -14 75 -57t1 -91zM407 115q10 17 5 33q-2 9 -7.5 14.5t-14.5 9.5q-16 7 -34.5 0.5t-28.5 -21.5q-5 -8 -6.5 -16.5
t0.5 -16.5q4 -16 20.5 -24t35.5 -1.5t30 22.5zM451 173q4 6 2 12.5t-8 8.5q-4 2 -7 1.5t-7 -1.5q-7 -2 -10 -9q-8 -14 6 -21q3 -1 6.5 -1t7.5 1q2 1 4 2.5t3.5 3t2.5 3.5zM880 571q42 -46 54 -106q6 -30 4.5 -59t-11.5 -56q-4 -13 -16 -19t-25 -2l-4 2q-2 1 -3.5 2t-2.5 3
l-4 2l-2 4q-2 1 -3 3q-6 12 -2 25q13 39 5 82q-4 21 -14 40t-24 35q-15 17 -32.5 28t-38.5 18q-41 12 -82 4q-7 -2 -13 -0.5t-12 4.5q-11 8 -14 21q-2 7 -0.5 13t4.5 11q3 4 6 7t7 5t8 2q12 3 23.5 4t23 1.5t23.5 -1t23.5 -3.5t22.5 -6q19 -6 36.5 -15t33 -21.5t29.5 -27.5z
M746 525q14 -5 26 -12.5t22 -19.5q20 -22 26 -51.5t-3 -55.5q-4 -11 -14 -16.5t-21 -1.5q-11 3 -16.5 13.5t-1.5 21.5q9 30 -12 53t-51 16q-5 -1 -10.5 0t-10.5 4q-3 2 -5 4t-3.5 4t-2.5 4.5t-1 5.5q-2 11 4 21t17 12q29 6 57 -2z" />
    <glyph glyph-name="uniE65E" unicode="&#xe65e;" 
d="M512 291q39 0 66.5 28t27.5 66.5t-27.5 66t-66 27.5t-66.5 -27.5t-28 -66.5q0 -25 13 -46.5t34.5 -34.5t46.5 -13zM704 120q0 30 -35.5 52.5t-78 32t-78.5 9.5q-25 0 -57 -6.5t-62.5 -17.5t-51.5 -29.5t-21 -40.5v-34h384v34zM811 684h-598q-35 0 -60 -25t-25 -60v-598
q0 -14 4.5 -27t12.5 -23.5t18.5 -18.5t23.5 -12t26 -4h598q35 0 60 25t25 60v598q0 35 -25 60t-60 25zM811 1h-598v598h598v-598z" />
    <glyph glyph-name="uniE65F" unicode="&#xe65f;" 
d="M811 684h-598q-35 0 -60 -25t-25 -60v-598q0 -14 4.5 -27t12.5 -23.5t18.5 -18.5t23.5 -12t26 -4h598q35 0 60 25t25 60v598q0 35 -25 60t-60 25zM726 257h-171v-171h-85v171h-171v85h171v171h85v-171h171v-85z" />
    <glyph glyph-name="uniE660" unicode="&#xe660;" 
d="M811 684h-598q-35 0 -60 -25t-25 -60v-598q0 -14 4.5 -27t12.5 -23.5t18.5 -18.5t23.5 -12t26 -4h598q35 0 60 25t25 60v598q0 35 -25 60t-60 25zM427 86l-214 214l60 59l154 -153l324 324l60 -60z" />
    <glyph glyph-name="uniE661" unicode="&#xe661;" 
d="M811 684h-179q-13 38 -46 61.5t-74 23.5t-74 -23.5t-46 -61.5h-179q-11 0 -22 -3t-20.5 -8.5t-17.5 -13.5t-13.5 -17.5t-8.5 -20.5t-3 -22v-598q0 -35 25 -60t60 -25h598q35 0 60 25t25 60v598q0 48 -42 73q-20 12 -43 12zM512 684q18 0 30.5 -12.5t12.5 -30t-12.5 -30
t-30.5 -12.5t-30.5 12.5t-12.5 30t12.5 30t30.5 12.5zM512 513q53 0 90.5 -37.5t37.5 -90.5t-37.5 -90.5t-90.5 -37.5q-35 0 -64.5 17.5t-46.5 47t-17 63.5q0 53 37.5 90.5t90.5 37.5zM768 1h-512v60q0 21 13 39.5t34.5 32.5t48.5 26t56 19t55.5 11t48.5 4q34 0 76.5 -9
t83.5 -24.5t68.5 -42t27.5 -56.5v-60z" />
    <glyph glyph-name="uniE662" unicode="&#xe662;" 
d="M893 554h-84v-381h-551v-85q0 -19 12 -30.5t31 -11.5h465l170 -170v635q0 7 -1.5 12.5t-4 10t-6.5 8.5t-8.5 6.5t-10 4t-12.5 1.5zM724 300v381q0 19 -11.5 30.5t-30.5 11.5h-551q-19 0 -30.5 -11.5t-11.5 -30.5v-593l169 169h424q9 0 17 3.5t13.5 9t8.5 13t3 17.5z" />
    <glyph glyph-name="uniE663" unicode="&#xe663;" 
d="M316 462l196 -196l196 196l60 -61l-256 -256l-256 256z" />
    <glyph glyph-name="uniE664" unicode="&#xe664;" 
d="M316 154l196 196l196 -196l60 61l-256 256l-256 -256z" />
    <glyph glyph-name="uniE665" unicode="&#xe665;" 
d="M48 305q0 -53 37 -90.5t90 -37.5t90.5 37.5t37.5 90.5t-37.5 90.5t-90.5 37.5q-34 0 -63.5 -17t-46.5 -46.5t-17 -64.5zM383 305q0 -53 37.5 -90.5t90.5 -37.5t90.5 37.5t37.5 90.5v0q0 35 -17 64.5t-46.5 46.5t-64.5 17q-53 0 -90.5 -37.5t-37.5 -90.5zM721 305
q0 -53 37.5 -90.5t90.5 -37.5q35 0 64 17t46.5 46.5t17.5 64.5v0q0 53 -37.5 90.5t-90.5 37.5q-35 0 -64.5 -17t-46.5 -46.5t-17 -64.5z" />
    <glyph glyph-name="uniE666" unicode="&#xe666;" 
d="M852 319h-309v309q0 13 -9 22t-22 9q-8 0 -15.5 -4t-11.5 -11.5t-4 -15.5v-309h-309q-6 0 -12 -2.5t-10 -6.5t-6.5 -10t-2.5 -12q0 -13 9 -22t22 -9h309v-309q0 -13 9 -22t22 -9t22 9t9 22v309h309q13 0 22 9t9 22q0 8 -4 15.5t-11.5 11.5t-15.5 4z" />
    <glyph glyph-name="uniE667" unicode="&#xe667;" 
d="M811 257h-598v86h598v-86z" />
    <glyph glyph-name="uniE668" unicode="&#xe668;" 
d="M512 727q-115 0 -213.5 -57.5t-156 -156t-57.5 -214t57.5 -214t156 -155.5t214 -57t214 57t155.5 155.5t57 214.5q0 86 -34 165t-91 136.5t-136 91.5t-166 34zM512.5 599q54.5 0 91 -37t36.5 -91.5t-36.5 -91.5t-91 -37t-91.5 37t-37 91.5t37 91.5t91.5 37zM512.5 -8
q-52.5 0 -101.5 17.5t-88 48t-67 71.5q0 24 18.5 46t47 37.5t63.5 26.5t68 16.5t59.5 5.5t59.5 -5.5t67.5 -16.5t63.5 -26.5t47 -37.5t18 -46q-28 -41 -67 -71.5t-87.5 -48t-101 -17.5z" />
    <glyph glyph-name="uniE669" unicode="&#xe669;" 
d="M512 471q-71 0 -121 -50t-50 -121t50 -121t121 -50t121 50t50 121t-50 121t-121 50zM893 343q-7 65 -36 124.5t-73.5 104t-104 73.5t-124.5 36v88h-86v-88q-133 -14 -228.5 -109.5t-109.5 -228.5h-88v-86h88q14 -133 109.5 -228.5t228.5 -109.5v-88h86v88
q133 14 228.5 109.5t109.5 228.5h88v86h-88zM512 1q-61 0 -116 24t-95 64t-64 95t-24 116q0 124 87.5 211.5t211.5 87.5t211.5 -87.5t87.5 -211.5t-87.5 -211.5t-211.5 -87.5z" />
    <glyph glyph-name="uniE66A" unicode="&#xe66a;" 
d="M213 641v-85h598v85h-598zM213 215h171v-256h256v256h171l-299 298z" />
    <glyph glyph-name="uniE66B" unicode="&#xe66b;" 
d="M513 715q-87 0 -166 -34t-136 -91t-90.5 -136t-33.5 -166q0 -116 57 -214t155 -155.5t214 -57.5t214.5 57.5t155.5 155.5t57 214q0 87 -34 166t-91 136t-136 91t-166 34zM727 245h-171v-170h-85v170h-171v86h171v170h85v-170h171v-86z" />
    <glyph glyph-name="uniE66C" unicode="&#xe66c;" 
d="M512 727q-115 0 -213.5 -57.5t-156 -156t-57.5 -214t57.5 -214t156 -155.5t214 -57t214 57t155.5 155.5t57 214.5q0 86 -34 165t-91 136.5t-136 91.5t-166 34zM726 257h-427v85h427v-85z" />
    <glyph glyph-name="uniE66D" unicode="&#xe66d;" 
d="M427 108l256 192l-256 192v-384zM512 727q-116 0 -214.5 -57t-155.5 -155.5t-57 -214.5t57 -214.5t155.5 -155.5t214.5 -57t214.5 57t155.5 155.5t57 214.5q0 87 -34 166t-91 136t-136 91t-166 34zM512 -41q-93 0 -171.5 45.5t-124 124t-45.5 171.5q0 69 27 132.5
t72.5 109t109 72.5t132.5 27t132.5 -27t109 -72.5t72.5 -109t27 -132.5t-27 -132.5t-72.5 -109t-109 -72.5t-132.5 -27z" />
    <glyph glyph-name="uniE66E" unicode="&#xe66e;" 
d="M512 319q-30 29 -64 52.5t-72 42t-78 31t-83 19.5t-87 7v-470q109 0 208 -39.5t176 -111.5q77 72 176 111.5t208 39.5v470q-73 0 -143 -18.5t-130 -52t-111 -81.5zM512 471q53 0 90.5 37.5t37.5 90.5t-37.5 90.5t-90.5 37.5t-90.5 -37.5t-37.5 -90.5t37.5 -90.5
t90.5 -37.5z" />
    <glyph glyph-name="uniE66F" unicode="&#xe66f;" 
d="M811 684h-43v85h-85v-85h-342v85h-85v-85h-43q-35 0 -60 -25t-25 -60v-598q0 -35 25 -60t60 -25h598q35 0 60 25t25 60v598q0 35 -25 60t-60 25zM512 556q53 0 90.5 -37.5t37.5 -90.5t-37.5 -90.5t-90.5 -37.5t-90.5 37.5t-37.5 90.5t37.5 90.5t90.5 37.5zM768 44h-512
v43q0 24 18.5 46t47 37t63.5 26.5t68 17t59 5.5q34 0 76.5 -9t83.5 -25t68.5 -42t27.5 -56v-43z" />
    <glyph glyph-name="uniE670" unicode="&#xe670;" 
d="M534 705q-74 0 -142 -25.5t-121 -71.5t-87 -108l-99 99v-278h278l-120 120q28 53 71.5 93.5t100 63t119.5 22.5q51 0 100 -16.5t88.5 -46t69 -69t46 -88.5t16.5 -100q0 -86 -43.5 -160t-117 -117t-159.5 -43q-104 0 -185.5 59t-117.5 154h-90q36 -130 145 -214.5
t248 -84.5q83 0 158 32.5t129.5 87t86 129.5t31.5 157q0 109 -54.5 202.5t-148 148t-202.5 54.5zM470 492v-218l200 -119l34 55l-170 103v179h-64z" />
    <glyph glyph-name="uniE671" unicode="&#xe671;" 
d="M450 40v-93h93v93h-93zM689 360q21 36 21 80q0 75 -58 127.5t-155 52.5q-91 0 -147 -49t-67 -142l83 -10q11 69 46 101.5t87 32.5q53 0 90 -35.5t37 -83.5q0 -26 -12.5 -48t-54.5 -59.5t-59 -56.5q-11 -13 -19 -26.5t-13 -26.5q-13 -35 -13 -82v-25h78q1 49 7 71
q3 10 7.5 20t10.5 18t19 21t33 31q59 52 79 89z" />
    <glyph glyph-name="uniE672" unicode="&#xe672;" 
d="M939 568l-196 164l-55 -65l196 -164zM336 667l-55 66l-196 -165l55 -65zM511.5 641q-104.5 0 -192.5 -51t-139.5 -139.5t-51.5 -193.5q0 -52 14 -101.5t38.5 -92t60 -78t77.5 -60t92 -38.5t102 -14q104 0 192.5 51.5t140 140t51.5 193t-51.5 193t-140 139.5t-193 51z
M512 -41q-61 0 -116 23.5t-95 63.5t-64 95.5t-24 115.5q0 124 87.5 211.5t211.5 87.5t211.5 -87.5t87.5 -211t-87.5 -211t-211.5 -87.5zM449 192l-90 91l-45 -46l135 -135l257 256l-46 45z" />
    <glyph glyph-name="uniE673" unicode="&#xe673;" 
d="M640 331v256l-128 128l-128 -128v-86h-256v-597h768v427h-256zM299 -11h-86v86h86v-86zM299 160h-86v85h86v-85zM299 331h-86v85h86v-85zM555 -11h-86v86h86v-86zM555 160h-86v85h86v-85zM555 331h-86v85h86v-85zM555 501h-86v86h86v-86zM811 -11h-86v86h86v-86zM811 160
h-86v85h86v-85z" />
    <glyph glyph-name="uniE674" unicode="&#xe674;" 
d="M171 544h768v85h-768q-36 0 -61 -25t-25 -60v-469h-85v-128h597v128h-426v469zM981 459h-256q-11 0 -21 -6t-15.5 -15.5t-5.5 -21.5v-427q0 -17 12.5 -29.5t29.5 -12.5h256q18 0 30.5 12.5t12.5 29.5v427q0 18 -12.5 30.5t-30.5 12.5zM939 75h-171v298h171v-298z" />
    <glyph glyph-name="uniE675" unicode="&#xe675;" 
d="M826 372q-22 111 -110 184t-204 73q-46 0 -89 -12.5t-79 -35t-66 -54.5t-50 -70q-47 -5 -89.5 -27t-73 -55.5t-48 -78.5t-17.5 -93q0 -106 75 -181t181 -75h555q88 0 150.5 62.5t62.5 150.5q0 55 -26.5 102.5t-72 76.5t-99.5 33zM427 75l-150 149l60 60l90 -89l221 221
l60 -60z" />
    <glyph glyph-name="uniE676" unicode="&#xe676;" 
d="M283 351q46 -90 118 -162t163 -119l94 95q5 5 12.5 8.5t15 3.5t15.5 -2q74 -24 152 -24q18 0 30.5 -12.5t12.5 -30.5v-149q0 -9 -3.5 -17t-9 -13.5t-13.5 -9t-17 -3.5q-147 0 -281.5 57.5t-231.5 154.5t-154.5 231.5t-57.5 281.5q0 5 1 9t2.5 8t4 7.5t5 6t6 5t7.5 4
t8 2.5t9 1h149q18 0 30.5 -12.5t12.5 -30.5q0 -26 2.5 -52t8 -51t13.5 -49q8 -25 -10 -43z" />
    <glyph glyph-name="uniE677" unicode="&#xe677;" 
d="M341 587v-598l470 299z" />
    <glyph glyph-name="uniE678" unicode="&#xe678;" 
d="M725 364v149q0 13 -5 22.5t-15 15t-22 5.5h-512q-20 0 -31.5 -11.5t-11.5 -31.5v-426q0 -20 11.5 -31.5t31.5 -11.5h512q12 0 22 5.5t15 15t5 22.5v149l171 -171v470z" />
    <glyph glyph-name="uniE679" unicode="&#xe679;" 
d="M811 684h-179q-13 38 -46 61.5t-74 23.5t-74 -23.5t-46 -61.5h-179q-11 0 -22 -3t-20.5 -8.5t-17.5 -13.5t-13.5 -17.5t-8.5 -20.5t-3 -22v-598q0 -35 25 -60t60 -25h598q35 0 60 25t25 60v598q0 48 -42 73q-20 12 -43 12zM512 684q18 0 30.5 -12.5t12.5 -30t-12.5 -30
t-30.5 -12.5t-30.5 12.5t-12.5 30t12.5 30t30.5 12.5zM597 87h-298v85h298v-85zM725 257h-426v86h426v-86zM725 428h-426v85h426v-85z" />
    <glyph glyph-name="uniE67A" unicode="&#xe67a;" 
d="M171 556h-86v-597q0 -36 25 -61t61 -25h597v86h-597v597zM853 727h-512q-35 0 -60 -25t-25 -61v-512q0 -35 25 -60t60 -25h512q36 0 61 25t25 60v512q0 36 -25 61t-61 25zM811 343h-427v85h427v-85zM640 172h-256v85h256v-85zM811 513h-427v86h427v-86z" />
    <glyph glyph-name="uniE67B" unicode="&#xe67b;" 
d="M512 620q-158 0 -285.5 -88.5t-183.5 -231.5q56 -143 183.5 -231.5t285.5 -88.5t285.5 88.5t183.5 231.5q-37 94 -106 166t-163.5 113t-199.5 41zM512 87q-88 0 -150.5 62.5t-62.5 150.5t62.5 150.5t150.5 62.5t150.5 -62.5t62.5 -150.5t-62.5 -150.5t-150.5 -62.5z
M512 428q-53 0 -90.5 -37.5t-37.5 -90.5t37.5 -90.5t90.5 -37.5t90.5 37.5t37.5 90.5t-37.5 90.5t-90.5 37.5z" />
    <glyph glyph-name="uniE67C" unicode="&#xe67c;" 
d="M853 641h-682q-36 0 -61 -25t-25 -60v-512q0 -35 25 -60t61 -25h682q36 0 61 25t25 60v512q0 35 -25 60t-61 25zM640 44h-469v171h469v-171zM640 257h-469v171h469v-171zM853 44h-170v384h170v-384z" />
    <glyph glyph-name="uniE67D" unicode="&#xe67d;" 
d="M231 25.5q0 7.5 6 13.5l225 224l-225 225q-6 6 -6 13t6 13l29 29q5 6 13 6t13 -6l266 -267q6 -5 6 -13t-6 -13l-266 -266q-6 -6 -13 -6t-13 6l-29 28q-6 6 -6 13.5zM451 25.5q0 7.5 5 13.5l225 224l-225 225q-5 6 -5 13t5 13l29 29q6 6 13.5 6t13.5 -6l266 -267
q5 -5 5 -13t-5 -13l-266 -266q-6 -6 -13.5 -6t-13.5 6l-29 28q-5 6 -5 13.5z" />
    <glyph glyph-name="uniE67E" unicode="&#xe67e;" 
d="M249 263q0 8 6 13l266 267q5 6 13.5 6t12.5 -6l28 -29q7 -5 7 -13t-7 -13l-224 -225l224 -224q7 -6 7 -13.5t-7 -13.5l-28 -28q-5 -6 -12.5 -6t-13.5 6l-266 266q-6 6 -6 13zM468 263q0 8 6 13l266 267q6 6 13.5 6t13.5 -6l29 -29q5 -5 5 -13t-5 -13l-226 -225l226 -224
q5 -6 5 -13.5t-5 -13.5l-29 -28q-6 -6 -13.5 -6t-13.5 6l-266 266q-6 6 -6 13z" />
    <glyph glyph-name="uniE67F" unicode="&#xe67f;" 
d="M512 347q-4 0 -8 -1t-8 -2.5t-7.5 -3.5t-6.5 -4.5t-5.5 -5.5t-4.5 -6.5t-3.5 -7.5t-2.5 -8t-1 -8q0 -13 6.5 -24t17.5 -17t23 -6q19 0 33 14t14 33q0 12 -6 23t-17 17.5t-24 6.5zM512 727q-115 0 -213.5 -57.5t-156 -156t-57.5 -214t57.5 -214t156 -155.5t214 -57t214 57
t155.5 155.5t57 214.5q0 86 -34 165t-91 136.5t-136 91.5t-166 34zM606 206l-350 -162l162 350l350 162z" />
    <glyph glyph-name="uniE680" unicode="&#xe680;" 
d="M811 715h-598q-14 0 -27 -4.5t-23.5 -12.5t-18 -18.5t-12 -23.5t-4.5 -27v-597q0 -23 11.5 -43t31 -31t42.5 -11h171l128 -128l128 128h171q17 0 33 6.5t27 18t18 27.5t7 33v597q0 36 -25 61t-60 25zM555 32h-86v85h86v-85zM643 362l-38 -39q-13 -13 -21 -23t-15.5 -24
t-10.5 -32t-3 -41h-86v21q0 70 50 121l53 54q25 24 25 60q0 11 -3 22t-8.5 20.5t-13.5 17.5t-17 13.5t-20 8.5t-23 3q-35 0 -60 -25t-25 -60h-86q0 34 13.5 66t36.5 54.5t54.5 36t66.5 13.5q46 0 85.5 -22.5t62.5 -62t23 -85.5q0 -57 -40 -97z" />
    <glyph glyph-name="uniE681" unicode="&#xe681;" 
d="M704 556v-491q0 -70 -50 -120t-120.5 -50t-120.5 50t-50 120v534q0 29 14 53.5t38.5 38.5t53.5 14q44 0 75.5 -31t31.5 -75v-448q0 -12 -5.5 -22t-15.5 -15.5t-22 -5.5q-17 0 -29.5 12.5t-12.5 30.5v405h-64v-405q0 -44 31 -75.5t75 -31.5t75.5 31.5t31.5 75.5v448
q0 70 -50 120t-120.5 50t-120.5 -50t-50 -120v-534q0 -97 68.5 -165.5t166 -68.5t166 68.5t68.5 165.5v491h-64z" />
    <glyph glyph-name="uniE682" unicode="&#xe682;" 
d="M512 727q-116 0 -214 -57.5t-155.5 -155.5t-57.5 -214t57.5 -214t155.5 -155.5t214 -57.5q87 0 166 34t136 91t91 136t34 166t-34 166t-91 136t-136 91t-166 34zM747 195q0 -20 -14 -33.5t-33 -13.5h-329l-94 -94v423q0 19 14 33t33 14h376q19 0 33 -14t14 -33v-282z" />
    <glyph glyph-name="uniE683" unicode="&#xe683;" 
d="M512 451q-28 0 -48.5 -20t-20.5 -48.5t20.5 -48.5t48.5 -20q19 0 34.5 9t25 25t9.5 35q0 28 -20.5 48t-48.5 20zM512 727q-116 0 -214 -57.5t-155.5 -155.5t-57.5 -214t57.5 -214t155.5 -155.5t214 -57.5q87 0 166 34t136 91t91 136t34 166t-34 166t-91 136t-136 91
t-166 34zM512 25q-4 4 -11 12t-27 33t-38 50t-40.5 60.5t-38.5 68t-27 68.5t-11 66q0 79 56.5 135.5t136.5 56.5q18 0 35 -3t32.5 -9t30 -14t27 -19t23 -23.5t19 -27t14 -30t9 -32.5t3.5 -34q0 -24 -7 -51t-18 -53t-25.5 -53.5t-30.5 -52t-32 -47t-30.5 -41t-25.5 -32
t-17 -21.5z" />
    <glyph glyph-name="uniE684" unicode="&#xe684;" 
d="M664 96l-46 174l140 116l-180 10l-66 168l-66 -168l-182 -10l142 -116l-46 -174l152 98zM854 300q0 -34 25 -60t59 -26v-170q0 -34 -25 -60t-59 -26h-684q-34 0 -59 26t-25 60v170q36 0 60 25t24 61q0 34 -25 60t-59 26v170q0 34 25 60t59 26h684q34 0 59 -26t25 -60
v-170q-34 0 -59 -26t-25 -60z" />
    <glyph glyph-name="uniE685" unicode="&#xe685;" 
d="M43 -96h938l-469 811zM555 32h-86v85h86v-85zM555 203h-86v170h86v-170z" />
    <glyph glyph-name="uniE686" unicode="&#xe686;" 
d="M598 214v-84h-300v84h300zM810 2v468h-596v-468h596zM810 684q34 0 60 -26t26 -60v-596q0 -34 -26 -60t-60 -26h-596q-36 0 -61 26t-25 60v596q0 34 25 60t61 26h42v86h86v-86h340v86h86v-86h42zM726 386v-86h-428v86h428z" />
    <glyph glyph-name="uniE687" unicode="&#xe687;" 
d="M261 561q-70 -70 -95 -163t0 -186.5t94.5 -163.5t163 -94.5t187 0t163.5 94.5t94.5 163.5t0 186.5t-94.5 163q-42 42 -94 68t-107.5 34t-110.5 0t-107.5 -34t-93.5 -68zM708 462l-155 -155l155 -155q12 -11 5 -18l-19 -19q-7 -7 -19 5l-155 155l-155 -155q-12 -12 -18 -5
l-20 19q-6 7 5 18l155 155l-155 155q-11 12 -5 19l20 19q6 7 18 -5l155 -155l155 155q12 12 19 5l19 -19q7 -7 -5 -19z" />
    <glyph glyph-name="uniE688" unicode="&#xe688;" 
d="M853 629h-682q-24 0 -43.5 -11t-30.5 -31t-11 -43l-1 -512q0 -23 11.5 -43t31 -31t43.5 -11h682q36 0 61 24.5t25 60.5v512q0 23 -11.5 43t-31 31t-43.5 11zM853 32h-682v512h682v-512zM656 497l-103 -191h82v-42h-97v-58h97v-43h-97v-84h-52v84h-100v43h100v58h-100v42
h84l-102 191h60l71 -149q6 -12 14 -31h1l2 6q1 3 2.5 6.5t3 6.5t3 6.5t3.5 7.5l72 147h56z" />
    <glyph glyph-name="uniE689" unicode="&#xe689;" 
d="M768 459h-43v85q0 88 -62.5 150.5t-150.5 62.5t-150.5 -62.5t-62.5 -150.5v-85h-43q-23 0 -42.5 -11.5t-31 -31.5t-11.5 -43v-426q0 -36 25 -61t60 -25h512q35 0 60 25t25 61v426q0 36 -25 61t-60 25zM512 75q-23 0 -42.5 11.5t-31 31t-11.5 42.5t11.5 42.5t31 31
t42.5 11.5q35 0 60 -25t25 -60t-25 -60t-60 -25zM644 459h-264v85q0 55 38.5 93.5t93.5 38.5t93.5 -38.5t38.5 -93.5v-85z" />
    <glyph glyph-name="uniE68A" unicode="&#xe68a;" 
d="M671 322q0 -66 -46.5 -112.5t-112.5 -46.5q-43 0 -80 21t-58 58t-21 80q0 66 46.5 112.5t112.5 46.5t112.5 -46.5t46.5 -112.5z" />
    <glyph glyph-name="uniE68B" unicode="&#xe68b;" 
d="M512 727q-87 0 -166 -34t-136 -91t-91 -136t-34 -166q0 -116 57.5 -214t155.5 -155.5t214 -57.5t214 57.5t155.5 155.5t57.5 214t-57.5 214t-155.5 155.5t-214 57.5zM427 87l-214 213l60 60l154 -153l324 324l60 -60z" />
    <glyph glyph-name="uniE68C" unicode="&#xe68c;" 
d="M128 428h171v171h-171v-171zM128 215h171v170h-171v-170zM341 215h171v170h-171v-170zM555 215h170v170h-170v-170zM341 428h171v171h-171v-171zM555 599v-171h170v171h-170zM768 215h171v170h-171v-170zM128 1h171v171h-171v-171zM341 1h171v171h-171v-171zM555 1h170
v171h-170v-171zM768 1h171v171h-171v-171zM768 599v-171h171v171h-171z" />
    <glyph glyph-name="uniE68D" unicode="&#xe68d;" 
d="M890 292q-12 77 -52 143t-103 111q-1 1 -2 1.5t-2 1.5l-2 2q-76 52 -166.5 64t-177 -19t-150.5 -100t-88 -158t-5.5 -178t76.5 -160q9 -11 22 -15.5t26.5 -1t22.5 13.5q13 13 13.5 31t-10.5 31q-37 46 -52.5 102t-8.5 113l1 5q15 104 95 173.5t187 69.5q30 0 59.5 -6.5
t55.5 -18t49.5 -28t43 -37.5t34.5 -45t25 -51.5t14 -57.5q3 -17 16.5 -29t30.5 -12q15 0 26.5 7.5t17.5 20.5t4 27z" />
    <glyph glyph-name="uniE68E" unicode="&#xe68e;" 
d="M835 576l-60 63l-263 -275v0l-263 275l-60 -63l262 -276l-262 -276l60 -63l263 275v0l263 -275l60 63l-262 276z" />
    <glyph glyph-name="uniE68F" unicode="&#xe68f;" 
d="M405 619v-427l214 213z" />
    <glyph glyph-name="uniE690" unicode="&#xe690;" 
d="M166 384q0 55 39 93.5t94 38.5h170v81h-170q-89 0 -151.5 -62.5t-62.5 -150.5t62.5 -150.5t151.5 -62.5h170v81h-170q-68 0 -108 55q-24 35 -25 77zM341 341h342v86h-342v-86zM725 597h-170v-81h170q55 0 94 -38.5t39 -93.5t-39 -93.5t-94 -38.5h-170v-81h170
q58 0 107.5 28.5t78 77.5t28.5 107q0 88 -62.5 150.5t-151.5 62.5z" />
    <glyph glyph-name="uniE691" unicode="&#xe691;" 
d="M680 12q-3 11 -12.5 18.5t-21.5 7.5h-76v126q-14 -2 -28.5 -3t-29.5 -1h-14q-8 0 -15.5 0.5t-14.5 1.5t-15 2v-126h-75q-12 0 -21.5 -7.5t-12.5 -18.5l-27 -95q-4 -17 6.5 -31t28.5 -14h320h1q9 0 17.5 4.5t13 13t4.5 17.5q0 7 -3 14l-25 91v0zM872 766q-15 4 -30 4
q-6 0 -13 -1v94q0 14 -10 23.5t-24 9.5h-566q-6 0 -11 -1.5t-9 -4.5t-7 -7.5t-5 -9.5t-2 -10v-94q-2 0 -4.5 0.5t-4.5 0.5h-4q-16 0 -30 -4q-58 -15 -85.5 -79t-7.5 -138q18 -65 63 -106t97 -41q3 0 9 1h1l8 -16q1 -2 2 -3q2 -4 4 -7.5t4.5 -7.5t4.5 -7v-2l2 -1
q8 -12 15 -21q0 -1 1 -1q16 -21 37 -40v-1q5 -4 10.5 -8t10.5 -9h1q11 -9 22.5 -16t23.5 -13.5t25 -11.5t26 -9q14 -4 27 -7q15 -3 29 -5h1h5q2 0 4.5 -0.5t5.5 -0.5h4h6h4q14 0 29 1h1l14 2q7 1 14 3h1q13 2 26 7h1q52 16 97 50h1q5 4 10 8.5t10 8.5l1 1q7 6 13.5 12.5
t12.5 13.5t11 14l1 1q4 5 8 10.5t7 10.5l1 2l1 1q7 10 13 22q1 1 2 3q4 9 8 16q7 -1 10 -1q52 0 97 41t63 106q20 74 -7.5 138t-85.5 79v0zM114 563q-8 35 -4.5 66t19 54t37.5 29q8 2 16 2q6 -1 13 -2v-156v-10q0 -4 0.5 -9t0.5 -9q1 -3 1 -4q1 -12 3 -26q0 -4 1 -5
q1 -7 2.5 -13t2.5 -12q1 -2 1 -4l1 -5q-30 5 -56.5 34t-37.5 70v0zM685 627l-94 -70l34 -111q1 -3 0 -6t-4 -5l-6 -2q-2 0 -3.5 0.5t-2.5 1.5l-97 66l-97 -66q-3 -2 -6.5 -2t-5.5 2q-2 1 -3 2t-1.5 2.5t-0.5 3.5t1 3l34 111l-94 70q-6 5 -4 12t10 7l118 3l39 109q2 7 10 7
t10 -7l39 -109l118 -3q8 0 10 -7t-4 -12v0zM910 563q-11 -41 -37.5 -70t-56.5 -34q0 1 1 3v2l1 3v5l2 4v4l2 4q0 2 0.5 4.5t0.5 4.5q1 2 1 4q2 14 3 27q0 1 0.5 1.5t0.5 2.5q1 15 1 28v156q3 1 6.5 1.5t6.5 0.5q2 0 4 -0.5t4 -0.5t4 -0.5t4 -0.5q35 -10 50.5 -54t1.5 -95v0z
M910 563z" />
    <glyph glyph-name="uniE692" unicode="&#xe692;" 
d="M719 256q-68 0 -133 35q-72 29 -126 29q-31 0 -68 -10t-60 -20q-7 -3 -15 -2t-15 5q-14 10 -14 27v416q0 6 2.5 12t7 10.5t10.5 7.5q4 1 11 3.5t25 8.5t35.5 10.5t41 8t42.5 3.5q71 0 150 -35q2 -1 3 -2q48 -27 101 -27q15 0 30.5 3t26.5 6.5t21.5 8t14.5 6.5t5 3
q16 10 33 1q7 -4 11.5 -11.5t4.5 -16.5v-416q0 -8 -4 -15t-11 -12q-6 -4 -18.5 -10.5t-46 -16.5t-65.5 -10zM460 384q69 0 152 -34l4 -2q5 -3 15.5 -8t37 -12.5t50.5 -7.5q40 0 81 19v348q-9 -3 -18.5 -5.5t-20 -5t-22 -3.5t-22.5 -1q-69 0 -131 35q-68 29 -123 29
q-45 0 -111 -22v-349q62 19 108 19zM544 -32h-352v800q0 13 9.5 22.5t22.5 9.5t22.5 -9.5t9.5 -22.5v-736h288q13 0 22.5 -9.5t9.5 -22.5t-9.5 -22.5t-22.5 -9.5zM224 -32h-63q-5 0 -10 1.5t-9 4.5t-7 7t-4.5 9t-1.5 10q0 13 9.5 22.5t22.5 9.5h63q13 0 22.5 -9.5t9.5 -22.5
t-9.5 -22.5t-22.5 -9.5z" />
    <glyph glyph-name="uniE693" unicode="&#xe693;" 
d="M865 643q-34 0 -58 -24t-24 -57v-410h-68v273q0 34 -24 57.5t-59 23.5q-17 0 -32.5 -6.5t-26.5 -17.5t-17.5 -26t-6.5 -31v-275h-83v358q0 22 -11 40.5t-30 29.5t-42 11q-17 0 -32 -6.5t-26 -17.5t-18 -26t-7 -31v-356h-67v218q0 35 -24.5 58t-58.5 23q-17 0 -32.5 -6.5
t-26.5 -17.5t-17.5 -26t-6.5 -31v-272h873v464q4 22 -5.5 40.5t-28 29.5t-41.5 11zM185 152h-55v218q0 11 8 19t18 8q6 0 11 -2.5t8.5 -6t5.5 -8.5t2 -10v-218h2zM416 152h-55v354q0 11 8.5 19.5t18.5 8.5q2 0 4.5 -0.5t4.5 -1.5l4 -2q2 -1 4 -2.5t3 -3.5t2.5 -4t1.5 -4
l2 -6v-4v-354h2zM663 152h-55v273q0 7 4 13.5t10 9.5t12 3q11 0 18.5 -8t7.5 -18v-273h3zM894 152h-55v408q0 11 8 20t18 9q12 0 19.5 -8.5t7.5 -20.5v-408h2z" />
    <glyph glyph-name="uniE694" unicode="&#xe694;" 
d="M960 448q0 78 -35.5 149t-95.5 122.5t-143 82t-174 30.5q-121 0 -224.5 -51.5t-163.5 -140t-60 -192.5q0 -87 45 -166t128 -135q7 -5 15.5 -5.5t16 3.5t12.5 11t5.5 15.5t-3 16t-10.5 12.5q-69 47 -107 112t-38 136q0 87 51.5 160.5t140 116.5t192.5 43t192.5 -43
t140 -116.5t51.5 -160.5q0 -65 -30.5 -124t-82 -102t-122.5 -68.5t-149 -25.5q-1 0 -3 -0.5t-3 -0.5q-11 2 -21 -3.5t-14 -16.5q-9 -26 -94 -74q17 58 3 79q-2 3 -4.5 5.5t-5.5 4.5t-6 3t-6.5 2t-7.5 1q-9 0 -16 -4.5t-11.5 -11.5t-4.5 -16t4 -16q-5 -33 -33 -100
q-8 -20 8 -35q4 -4 10 -6.5t12 -2.5h3h4l2 2q2 0 4 1q144 64 188 125q119 2 220.5 53.5t160.5 139.5t59 191zM727 622q-10 10 -23 10t-23 -10l-136 -136q-4 2 -7.5 4t-7.5 4t-8.5 3.5t-8.5 2.5t-8.5 2t-8.5 2t-8 1h-10q-53 0 -90.5 -37.5t-37.5 -90.5t37.5 -90.5t90.5 -37.5
t90.5 37.5t37.5 90.5q0 17 -4.5 32.5t-12.5 30.5l53 52l39 -40q10 -9 23 -9t23 9q6 6 8 14.5t0 16.5t-8 14l-40 40l40 40q6 6 8 14.5t0 16.5t-8 14zM523 332q-18 -18 -45 -18t-45 18q-19 19 -19 45.5t19 44.5q9 9 20.5 14t24.5 5q27 0 45.5 -18.5t18.5 -45t-19 -45.5z" />
    <glyph glyph-name="uniE695" unicode="&#xe695;" 
d="M512 -32q-13 0 -23 9l-96 96q-9 10 -9 23t9.5 22.5t22.5 9.5t23 -9l73 -74l73 74q10 9 23 9h224q13 0 22.5 9.5t9.5 22.5v512q0 13 -9.5 22.5t-22.5 9.5h-640q-13 0 -22.5 -9.5t-9.5 -22.5v-512q0 -13 9.5 -22.5t22.5 -9.5h96q13 0 22.5 -9.5t9.5 -22.5t-9.5 -22.5
t-22.5 -9.5h-96q-40 0 -68 28t-28 68v512q0 40 28 68t68 28h640q40 0 68 -28t28 -68v-512q0 -40 -28 -68t-68 -28h-211l-86 -87q-10 -9 -23 -9zM336 384q-20 0 -34 14t-14 34t14 34t34 14t34 -14t14 -34t-14 -34t-34 -14zM528 384q-20 0 -34 14t-14 34t14 34t34 14t34 -14
t14 -34t-14 -34t-34 -14zM720 384q-20 0 -34 14t-14 34t14 34t34 14t34 -14t14 -34t-14 -34t-34 -14z" />
    <glyph glyph-name="uniE696" unicode="&#xe696;" 
d="M800 -64h-576q-40 0 -68 28t-28 68v640q0 40 28 68t68 28h448q13 0 22.5 -9.5t9.5 -22.5t-9.5 -22.5t-22.5 -9.5h-448q-13 0 -22.5 -9.5t-9.5 -22.5v-640q0 -13 9.5 -22.5t22.5 -9.5h576q13 0 22.5 9.5t9.5 22.5v512q0 13 9.5 22.5t22.5 9.5t22.5 -9.5t9.5 -22.5v-512
q0 -40 -28 -68t-68 -28zM612 448q-13 0 -23 9q-6 7 -8 15t0 16t8 15l318 318q10 9 23 9t23 -9q17 -18 5 -39q-3 -4 -5 -7l-318 -318q-10 -9 -23 -9zM480 448h-192q-13 0 -22.5 9.5t-9.5 22.5t9.5 22.5t22.5 9.5h192q13 0 22.5 -9.5t9.5 -22.5t-9.5 -22.5t-22.5 -9.5z
M672 256h-384q-13 0 -22.5 9.5t-9.5 22.5t9.5 22.5t22.5 9.5h384q13 0 22.5 -9.5t9.5 -22.5t-9.5 -22.5t-22.5 -9.5z" />
    <glyph glyph-name="uniE697" unicode="&#xe697;" 
d="M512 -32q-8 0 -15 3.5t-11 9.5l-65 91q-156 28 -256.5 133.5t-100.5 242.5q0 104 60 192.5t163.5 140t224.5 51.5q91 0 174 -30.5t143 -82t95.5 -122.5t35.5 -149q0 -137 -100.5 -242.5t-256.5 -133.5l-65 -91q-10 -13 -26 -13zM512 768q-159 0 -271.5 -94t-112.5 -226
q0 -76 40.5 -143.5t113 -112.5t162.5 -59q13 -2 21 -13l47 -65l47 65q2 4 5.5 6.5t7.5 4.5t8 2q137 21 226.5 110t89.5 205q0 132 -112.5 226t-271.5 94zM288.5 384q-26.5 0 -45.5 19t-19 45t19 45t45.5 19t45 -19t18.5 -45t-18.5 -45t-45 -19zM288 448v-32v32zM736 384
q-7 0 -14.5 1.5t-13.5 5t-12 7.5t-10 10t-7.5 12t-5 13.5t-1.5 14.5q0 26 19 45t45 19q10 0 20 -3t18 -9t14 -14t9 -18t3 -20q0 -26 -18.5 -45t-45.5 -19zM736 448v-32v32zM512.5 384q-26.5 0 -45.5 19t-19 45t19 45t45 19q10 0 20 -3t18 -9t14 -14t9 -18t3 -20
q0 -26 -18.5 -45t-45 -19zM512 448v-32v32z" />
    <glyph glyph-name="uniE698" unicode="&#xe698;" 
d="M869 542q-30 73 -86.5 129t-129.5 87q-37 16 -77 24t-81 8q-83 0 -158 -32q-73 -31 -129.5 -87t-86.5 -129q-32 -76 -32 -158.5t32 -158.5q30 -73 86.5 -129t129.5 -87q75 -32 158 -32t158 32q37 15 69 37t60 50q57 56 87 129q16 38 24 77.5t8 81t-8 81t-24 77.5zM468 28
q-64 5 -122 31.5t-103 71.5q-96 96 -104 231h112q9 -85 69 -145q61 -61 148 -69v-120zM468 198q-65 8 -111.5 54t-55.5 110h167v-164zM468 412h-167q5 43 28 79.5t59 59.5t80 28v-167zM468 629q-86 -8 -148 -70q-61 -61 -70 -147h-110q5 63 31 120.5t72 102.5q94 94 225 104
v-110zM518 739q32 -2 63.5 -10t60.5 -21t55.5 -31.5t49.5 -41.5q22 -22 40.5 -48t31.5 -54.5t21 -59t10 -61.5h-118q-4 41 -22 79t-48 68q-12 12 -25 22t-27 18t-29 14t-31 10t-32 6v110zM518 578q64 -9 109.5 -55.5t53.5 -110.5h-163v166zM518 362h163q-9 -64 -54.5 -109
t-108.5 -54v163zM747 131q-31 -31 -67.5 -53t-77.5 -34.5t-84 -15.5v120q84 9 144 69q60 61 69 145h120q-9 -135 -104 -231z" />
    <glyph glyph-name="uniE699" unicode="&#xe699;" 
d="M920 581l-247 242q-9 9 -23 9q-13 0 -22 -9l-459 -471q-2 -1 -3 -2l-2 -4q-1 -1 -2 -3t-1.5 -3.5t-0.5 -3.5l-62 -331q-1 -5 0 -10.5t3 -10t6 -8.5q9 -9 22 -9q4 0 7 1l293 65q9 2 16 9l476 494q17 18 3 40q-2 3 -4 5zM434 123l-123 121q-9 10 -22.5 10t-22.5 -9.5
t-9 -23t9 -22.5l113 -111l-209 -47l51 273l430 441l201 -197z" />
    <glyph glyph-name="uniE69A" unicode="&#xe69a;" horiz-adv-x="1108" 
d="M785 -34q-7 -4 -15 -4q-16 0 -24 14q-2 4 -3.5 8t-1 8.5t2 8.5t4.5 7.5t7 6.5q75 45 123 116l-29 17q-10 6 -13 17t3 21.5t17.5 13.5t21.5 -3l28 -16q16 33 26 69t12 74h-31q-6 0 -11.5 2t-9 6t-6 9t-2.5 11q0 3 0.5 6t2 5.5t3 4.5t3.5 4t4 3.5t4.5 2.5t5.5 2t6 1h31
q-5 75 -40 145l-26 -15q-7 -4 -14.5 -4t-14 4t-10.5 10q-2 4 -3 7.5t-1 7t1 7t3 7t4.5 6t6.5 4.5l26 15q-43 62 -106 105l-15 -26q-8 -14 -25 -14q-4 0 -7.5 1t-6.5 3q-10 6 -13.5 17t2.5 22l16 26q-70 34 -147 39v-35q0 -12 -8.5 -20.5t-19.5 -8.5q-6 0 -11.5 2.5t-9 6
t-6 9t-2.5 11.5v35q-75 -6 -143 -38l15 -28q4 -7 4 -14t-3.5 -13.5t-10.5 -10.5q-3 -2 -7 -3t-7 -1q-17 0 -25 14l-16 27q-31 -21 -57.5 -47.5t-48.5 -57.5l27 -16q7 -4 11 -10.5t4 -14t-4 -14.5q-3 -4 -7 -7.5t-8.5 -5t-9.5 -1.5q-8 0 -14 4l-28 16q-11 -23 -19.5 -46
t-13.5 -48.5t-7 -51.5h31q6 0 11 -2t9 -6t6.5 -9t2.5 -11q0 -12 -8.5 -20t-20.5 -8h-32q6 -76 39 -145l30 17q10 6 21.5 3t17.5 -13q2 -4 3 -8.5t0.5 -9t-2.5 -8.5t-5 -7.5t-7 -5.5l-30 -18q47 -69 119 -114q10 -6 13 -17.5t-4 -21.5q-4 -6 -10.5 -9.5t-14 -3.5t-14.5 4
q-100 63 -157 165t-57 220q0 92 36 175.5t97.5 144.5t146 97t177 36t177 -36t145.5 -97t97 -144.5t36 -175.5q0 -79 -25.5 -152t-74.5 -133t-117 -102zM545 409q15 0 28 -8l155 89q7 4 14.5 4t14 -4t10.5 -10q6 -10 3 -21.5t-13 -17.5l-155 -89q0 -23 -16.5 -39.5
t-40.5 -16.5q-11 0 -21.5 4t-18.5 12t-12.5 18.5t-4.5 21.5q0 15 8 28.5t21 21t28 7.5z" />
    <glyph glyph-name="uniE69B" unicode="&#xe69b;" 
d="M662 84h-420q-37 0 -63.5 26.5t-26.5 63.5v540q0 37 26.5 63.5t63.5 26.5h420q37 0 63.5 -26.5t26.5 -63.5v-540q0 -37 -26.5 -63.5t-63.5 -26.5zM242 744q-12 0 -21 -9t-9 -21v-540q0 -12 9 -21t21 -9h420q12 0 21 9t9 21v540q0 12 -9 21t-21 9h-420zM782 -36h-450
q-12 0 -21 9t-9 21t9 21t21 9h450q12 0 21 9t9 21v570q0 12 9 21t21 9t21 -9t9 -21v-570q0 -37 -26.5 -63.5t-63.5 -26.5zM542 564h-240q-12 0 -21 9t-9 21t9 21t21 9h240q12 0 21 -9t9 -21t-9 -21t-21 -9zM602 414h-300q-8 0 -15 4t-11 11t-4 15q0 6 2.5 11.5t6.5 9.5
t9.5 6.5t11.5 2.5h300q12 0 21 -9t9 -21t-9 -21t-21 -9zM602 264h-300q-12 0 -21 9t-9 21t9 21t21 9h300q12 0 21 -9t9 -21t-9 -21t-21 -9z" />
    <glyph glyph-name="uniE69C" unicode="&#xe69c;" 
d="M512 811q-44 0 -86 -9t-80 -25t-72.5 -39.5t-63 -52t-52 -63t-39.5 -72.5t-25 -80t-9 -86q0 -116 57.5 -214t155.5 -155.5t214 -57.5t214 57.5t155.5 155.5t57.5 214t-57.5 214t-155.5 155.5t-214 57.5zM512 43q-56 0 -108 17t-94 48.5t-73.5 73.5t-48.5 94t-17 108
q0 93 45.5 171.5t124 124t171.5 45.5t171.5 -45.5t124 -124t45.5 -171.5t-45.5 -171.5t-124 -124t-171.5 -45.5zM555 597h-86v-170h-170v-86h170v-170h86v170h170v86h-170v170z" />
    <glyph glyph-name="uniE69D" unicode="&#xe69d;" 
d="M512 832q-185 0 -316.5 -131.5t-131.5 -316.5t131.5 -316.5t316.5 -131.5t316.5 131.5t131.5 316.5t-131.5 316.5t-316.5 131.5zM512 0q-104 0 -192.5 51.5t-140 140t-51.5 192.5t51.5 192.5t140 140t192.5 51.5t192.5 -51.5t140 -140t51.5 -192.5t-51.5 -192.5
t-140 -140t-192.5 -51.5zM672 384h-160v224q0 9 -4.5 16t-11.5 11.5t-16 4.5q-7 0 -12.5 -2.5t-10 -7t-7 -10.5t-2.5 -12v-256q0 -13 9.5 -22.5t22.5 -9.5h192q7 0 12.5 2.5t10 7t7 10t2.5 12.5q0 13 -9.5 22.5t-22.5 9.5z" />
    <glyph glyph-name="uniE69E" unicode="&#xe69e;" 
d="M512 512q-53 0 -90.5 -37.5t-37.5 -90.5t37.5 -90.5t90.5 -37.5t90.5 37.5t37.5 90.5t-37.5 90.5t-90.5 37.5zM512 320q-26 0 -45 19t-19 45t19 45t45 19t45 -19t19 -45t-19 -45t-45 -19zM928 416h-1q-8 101 -60 186t-137 137t-186 60v1q0 13 -9.5 22.5t-22.5 9.5
t-22.5 -9.5t-9.5 -22.5v-1q-153 -12 -262 -121t-121 -262h-1q-13 0 -22.5 -9.5t-9.5 -22.5t9.5 -22.5t22.5 -9.5h1q4 -50 19.5 -98t41 -88.5t60.5 -75.5t75.5 -60.5t88.5 -41t98 -19.5v-1q0 -13 9.5 -22.5t22.5 -9.5t22.5 9.5t9.5 22.5v1q101 8 186 60t137 137t60 186h1
q13 0 22.5 9.5t9.5 22.5t-9.5 22.5t-22.5 9.5zM544 33v63q0 13 -9.5 22.5t-22.5 9.5t-22.5 -9.5t-9.5 -22.5v-63q-127 11 -217.5 101.5t-101.5 217.5h63q13 0 22.5 9.5t9.5 22.5t-9.5 22.5t-22.5 9.5h-63q11 127 101.5 217.5t217.5 101.5v-63q0 -13 9.5 -22.5t22.5 -9.5
t22.5 9.5t9.5 22.5v63q127 -11 217.5 -101.5t101.5 -217.5h-63q-13 0 -22.5 -9.5t-9.5 -22.5t9.5 -22.5t22.5 -9.5h63q-11 -127 -101.5 -217.5t-217.5 -101.5z" />
    <glyph glyph-name="uniE69F" unicode="&#xe69f;" 
d="M519 242v7q22 15 38 34.5t25 43.5t15 44t8 49.5t2.5 46.5t0.5 47v14q0 28 -4.5 52.5t-14 45.5t-23 38.5t-31 31t-38.5 22.5t-46 14t-54 5h-6q-63 0 -107 -24.5t-67 -71t-23 -113.5q0 -21 0.5 -33.5t2.5 -38t5.5 -44t11.5 -44t18.5 -44.5t27.5 -39.5t38 -35.5v-6
q-63 -9 -114 -27t-85 -49t-34 -68q0 -162 329 -162q82 0 144.5 10t99.5 25.5t60 37.5t31 43t8 46q0 29 -22 55t-58 43t-70 27.5t-68 17.5zM930 128q-13 0 -22.5 9.5t-9.5 22.5q-1 12 -29.5 33.5t-76 41t-92.5 25.5q-12 1 -20 10t-8 21v67q0 5 1.5 9.5t4 8.5t6.5 7
q41 32 68 94.5t27 124.5q0 39 -12 66.5t-33.5 41t-43.5 19.5t-48 6q-13 0 -22.5 9t-9.5 22.5t9.5 23t22.5 9.5q62 0 107 -24t69.5 -68.5t24.5 -104.5q0 -71 -30 -143t-77 -116v-25q49 -10 99 -32t88.5 -56.5t38.5 -69.5q0 -9 -4.5 -16t-12 -11.5t-15.5 -4.5z" />
    <glyph glyph-name="uniE6A0" unicode="&#xe6a0;" 
d="M811 768h-598q-7 0 -13.5 -1t-13 -3t-12.5 -5.5t-11 -7t-10 -8.5t-8.5 -10t-7 -11t-5.5 -12.5t-3 -13t-1 -13.5v-598q0 -35 25 -60t60 -25h598q35 0 60 25t25 60v598q0 17 -7 33t-18 27t-27 18t-33 7zM384 171h-85v298h85v-298zM555 171h-86v426h86v-426zM725 171h-85
v170h85v-170z" />
    <glyph glyph-name="uniE6A1" unicode="&#xe6a1;" 
d="M811 768h-179q-9 25 -26.5 44t-42 30t-51.5 11t-51.5 -11t-42 -30t-26.5 -44h-179q-17 0 -33 -7t-27 -18t-18 -27t-7 -33v-598q0 -17 7 -33t18 -27t27 -18t33 -7h598q35 0 60 25t25 60v598q0 35 -25 60t-60 25zM512 768q18 0 30.5 -12.5t12.5 -30.5q0 -11 -6 -21
t-15.5 -15.5t-21.5 -5.5q-18 0 -30.5 12.5t-12.5 30t12.5 30t30.5 12.5zM597 171h-298v85h298v-85zM725 341h-426v86h426v-86zM725 512h-426v85h426v-85z" />
    <glyph glyph-name="uniE6A2" unicode="&#xe6a2;" 
d="M853 60v495l-256 256h-341q-17 0 -33 -7t-27 -18.5t-18 -27t-7 -33.5v-682q0 -36 24.5 -61t60.5 -25h512q9 0 18 2t17 6t16 9l-189 189q-55 -35 -118 -35q-88 0 -150.5 62.5t-62.5 151t62.5 151t150.5 62.5t150.5 -62.5t62.5 -151.5q0 -63 -35 -117zM384 341
q0 -53 37.5 -90.5t90.5 -37.5t90.5 37.5t37.5 90.5q0 35 -17 64.5t-46.5 46.5t-64.5 17q-53 0 -90.5 -37.5t-37.5 -90.5z" />
    <glyph glyph-name="uniE6A3" unicode="&#xe6a3;" 
d="M811 512h-171v256h-256v-256h-171l299 -299zM213 128h598v-85h-598v85z" />
    <glyph glyph-name="uniE6A4" unicode="&#xe6a4;" 
d="M512 691q-55 0 -111 -16t-102.5 -42t-90 -58.5t-76 -64.5t-57 -59.5t-37 -45.5t-12.5 -21q0 -6 24 -37.5t70.5 -77t104 -88.5t135 -73.5t153 -30.5t153 30.5t135 73.5t104 88.5t70.5 77t24 37.5q0 3 -12.5 21t-37 45.5t-57 59.5t-76 64.5t-90 58.5t-103 42t-111.5 16z
M512.5 223q-39.5 0 -80 16t-70.5 38.5t-54.5 46.5t-37 40.5t-12.5 19t12.5 19t37 40.5t54.5 46.5t70.5 38.5t79.5 16q29 0 58.5 -8.5t54 -22t47 -30.5t39.5 -33.5t30 -31t19.5 -24t6.5 -11.5t-12.5 -18.5t-37 -40.5t-54.5 -46.5t-70.5 -38.5t-80 -16zM512 481
q-24 0 -48.5 -9.5t-42.5 -23.5t-33 -28.5t-22.5 -24.5t-7.5 -11.5t7.5 -11.5t22.5 -24.5t33 -28t42.5 -23.5t48.5 -10q18 0 35.5 5.5t32.5 13.5t28.5 18t24 20.5t18.5 19t12 14t4 6.5q0 2 -8 12t-22.5 24.5t-33 28.5t-43 23.5t-48.5 9.5zM512.5 330q-22.5 0 -38.5 15.5
t-16 38t16 38.5t38.5 16t38 -16t15.5 -38.5t-15.5 -38t-38 -15.5z" />
    <glyph glyph-name="uniE6A5" unicode="&#xe6a5;" 
d="M737 637q17 0 29.5 12.5t12.5 29.5v113q0 11 -5.5 21t-15.5 15.5t-21 5.5q-17 0 -29.5 -12.5t-12.5 -29.5v-113q0 -11 5.5 -21t15.5 -15.5t21 -5.5zM920 722h-85v-43q0 -40 -28.5 -69t-69.5 -29t-69.5 29t-28.5 69v43h-254v-43q0 -40 -28.5 -69t-69.5 -29t-69.5 29
t-28.5 69v43h-85q-17 0 -29.5 -12.5t-12.5 -30.5v-703q0 -4 0.5 -7.5t2 -7t3.5 -6.5l4 -6q2 -3 5 -5l6 -4q3 -2 6.5 -3.5t7 -2t7.5 -0.5h816q17 0 29.5 12.5t12.5 29.5v703q0 18 -12.5 30.5t-29.5 12.5zM878 18h-732v478h732v-478zM287 637q17 0 29.5 12.5t12.5 29.5v113
q0 17 -12.5 29.5t-29.5 12.5t-29.5 -12.5t-12.5 -29.5v-113q0 -17 12.5 -29.5t29.5 -12.5zM440 129q12 -12 29.5 -12t30.5 12l197 197q5 6 8.5 13.5t3.5 16.5q0 17 -12.5 29.5t-30 12.5t-29.5 -12l-167 -167l-69 68q-12 13 -30 13q-11 0 -21 -6t-15.5 -15.5t-5.5 -21.5
q0 -17 13 -29z" />
    <glyph glyph-name="uniE6A6" unicode="&#xe6a6;" 
d="M512 555q23 0 42.5 11.5t31 31t11.5 42.5t-11.5 42.5t-31 31t-42.5 11.5q-35 0 -60 -25t-25 -60q0 -23 11.5 -42.5t31 -31t42.5 -11.5zM512 469q-35 0 -60 -25t-25 -60t25 -60t60 -25q23 0 42.5 11.5t31 31t11.5 42.5q0 35 -25 60t-60 25zM512 213q-35 0 -60 -25t-25 -60
t25 -60t60 -25q23 0 42.5 11.5t31 31t11.5 42.5q0 17 -6.5 33t-18 27.5t-27.5 18t-33 6.5z" />
    <glyph glyph-name="uniE6A7" unicode="&#xe6a7;" 
d="M363 597l-150 150l-149 -150h107v-426h-107l149 -150l150 150h-107v426h107zM427 171h512v-86h-512v86zM427 683h512v-86h-512v86zM427 427h512v-86h-512v86z" />
    <glyph glyph-name="uniE6A8" unicode="&#xe6a8;" 
d="M154 798q0 16 4.5 31t13.5 27t21 21t27 14t31 5q41 0 69.5 -29t28.5 -69v-828q0 -27 -13 -49.5t-35.5 -35.5t-49.5 -13q-40 0 -68.5 29t-28.5 69v828zM675 798q0 41 28.5 69.5t69.5 28.5q26 0 48.5 -13t35.5 -36t13 -49v-828q0 -41 -28.5 -69.5t-68.5 -28.5q-54 0 -83 46
q-15 24 -15 52v828z" />
    <glyph glyph-name="uniE6A9" unicode="&#xe6a9;" 
d="M591 214q0 -18 26 -18q13 0 18 5l11 13q5 10 5 15v107q-5 10 -5 15t-12 11.5t-17 6.5q-8 0 -16 -8l-10 -10q-8 -10 -8 -15v-107q8 -10 8 -15zM701 266q0 -32 -5 -42l-16 -33q-18 -15 -29 -15q-5 0 -17 -2.5t-17 -2.5q-24 0 -34 5q-6 2 -13.5 7t-13.5 8q-23 12 -23 75v38
q0 32 5 42l18 33q16 15 27 15q5 0 17 2.5t17 2.5q24 0 34 -5q6 -2 15 -7.5t14.5 -8t15.5 -32.5q5 -15 5 -42v-38zM461 171h-52v175l-56 -15v38l100 30h8v-228zM522 734q187 0 319 -125t132 -301q0 -178 -133 -303.5t-318 -125.5t-318 125.5t-133 303.5h113
q0 -133 100.5 -227t237.5 -94t237.5 94t100.5 227t-100.5 227t-237.5 94v-67q0 -42 -22.5 -52.5t-54.5 16.5l-103 89q-32 28 -32 67t32 66l103 89q15 13 29.5 17.5t25 -0.5t16.5 -18.5t6 -34.5v-67z" />
    <glyph glyph-name="uniE6AA" unicode="&#xe6aa;" 
d="M660 896h262q27 0 51 -14t37.5 -37.5t13.5 -50.5v-262h-144v220h-220v144zM880 16v220h144v-262q0 -42 -30 -72t-72 -30h-262v144h220zM0 532v262q0 42 30 72t72 30h262v-144h-220v-220h-144zM144 236v-220h220v-144h-262q-42 0 -72 30t-30 72v262h144z" />
    <glyph glyph-name="uniE6AB" unicode="&#xe6ab;" 
d="M627 896q173 -38 285 -182t112 -330t-112 -330t-285 -182v120q125 39 203.5 145.5t78.5 246.5t-78.5 246.5t-203.5 145.5v120zM768 384q0 -164 -141 -235v470q141 -71 141 -235zM0 457q0 42 30 72t73 30h124l285 293v-936l-285 293h-124q-28 0 -52 13.5t-37.5 37
t-13.5 51.5v146z" />
    <glyph glyph-name="uniE6AC" unicode="&#xe6ac;" 
d="M154 820q0 43 24 55.5t59 -12.5l582 -409q35 -25 34.5 -59.5t-35.5 -58.5l-580 -402q-35 -24 -59.5 -11t-24.5 55v842z" />
    <glyph glyph-name="uniE6AD" unicode="&#xe6ad;" 
d="M804 676h220v-144h-262q-28 0 -51.5 13.5t-37 37t-13.5 51.5v262h144v-220zM660 -128v262q0 42 30 72t72 30h262v-144h-220v-220h-144zM220 676v220h144v-262q0 -42 -30 -72t-72 -30h-262v144h220zM0 92v144h262q42 0 72 -30t30 -72v-262h-144v220h-220z" />
    <glyph glyph-name="uniE6AE" unicode="&#xe6ae;" 
d="M512 827v-229l-114 115zM93 880l907 -906l-69 -69l-112 112q-94 -74 -198 -99v112q64 17 122 63l-231 231v-366l-272 272h-118q-40 0 -69 28.5t-29 69.5v130q0 40 28.5 68.5t69.5 28.5h159l-257 257zM890 393q0 129 -74.5 228t-194.5 135v112q165 -36 272 -169.5
t107 -305.5q0 -122 -56 -226l-82 84q28 68 28 142zM756 393q0 -23 -3 -33l-132 132v119q135 -66 135 -218z" />
    <glyph glyph-name="uniE6AF" unicode="&#xe6af;" 
d="M896 384q0 -164 -141 -235v470q141 -71 141 -235zM128 457q0 42 30 72t73 30h124l285 293v-936l-285 293h-124q-21 0 -40 8t-33 21.5t-22 32.5t-8 40v146z" />
    <glyph glyph-name="uniE6B0" unicode="&#xe6b0;" 
d="M1024 -32h-1024v832h1024v-832zM64 32h896v704h-896v-704zM384 205v358l358 -179zM448 461v-154l154 77z" />
    <glyph glyph-name="uniE6B1" unicode="&#xe6b1;" 
d="M330 230l44 -48l-288 -272l-44 48zM416 144q-53 0 -90.5 37.5t-37.5 90.5t37.5 90.5t90.5 37.5t90.5 -37.5t37.5 -90.5t-37.5 -90.5t-90.5 -37.5zM416 336q-26 0 -45 -19t-19 -45t19 -45t45 -19t45 19t19 45t-19 45t-45 19zM736 368q-34 0 -66 8.5t-61.5 25t-54.5 40.5
q-24 24 -40.5 52.5t-25 61.5t-8.5 68q0 14 1.5 28.5t4.5 28t7.5 27t11 26.5t13.5 25.5t16 24t20 22.5l86 90l362 -362l-90 -89q-68 -77 -176 -77zM643 803l-41 -41q-29 -29 -43.5 -64t-14.5 -74q0 -11 1 -21.5t3.5 -21t6 -20.5t8.5 -19.5t10.5 -18.5t12.5 -17.5t16 -15.5
q57 -58 134 -58q39 0 73.5 14.5t60.5 43.5l42 41zM29 -102l70 620l301 170l32 -54l-275 -154l-58 -506l547 103l90 240l61 -23l-103 -272z" />
    <glyph glyph-name="uniE6B2" unicode="&#xe6b2;" 
d="M1024 -128h-1024v768h1024v-768zM64 -64h896v640h-896v-640zM768 0h-640v512h640v-512zM192 64h512v384h-512v-384zM832 192h64v-64h-64v64zM832 64h64v-64h-64v64zM512 666l-272 172l35 55l237 -154l240 151l35 -55z" />
  </font>
</defs>
</svg>
