<?xml version="1.0" standalone="no"?>
<!DOCTYPE svg PUBLIC "-//W3C//DTD SVG 1.1//EN" "http://www.w3.org/Graphics/SVG/1.1/DTD/svg11.dtd" >
<svg xmlns="http://www.w3.org/2000/svg">
<metadata>
Created by FontForge 20120731 at Tue Mar 21 18:11:42 2017
 By admin
</metadata>
<defs>
<font id="es-icon" horiz-adv-x="1024" >
  <font-face 
    font-family="es-icon"
    font-weight="500"
    font-stretch="normal"
    units-per-em="1024"
    panose-1="2 0 6 3 0 0 0 0 0 0"
    ascent="896"
    descent="-128"
    x-height="792"
    bbox="0 -212.087 1024 896"
    underline-thickness="0"
    underline-position="0"
    unicode-range="U+0078-E95A"
  />
<missing-glyph 
 />
    <glyph glyph-name=".notdef" 
 />
    <glyph glyph-name=".notdef" 
 />
    <glyph glyph-name=".null" horiz-adv-x="0" 
 />
    <glyph glyph-name="nonmarkingreturn" horiz-adv-x="341" 
 />
    <glyph glyph-name="x" unicode="x" horiz-adv-x="1001" 
d="M281 543q-27 -1 -53 -1h-83q-18 0 -36.5 -6t-32.5 -18.5t-23 -32t-9 -45.5v-76h912v41q0 16 -0.5 30t-0.5 18q0 13 -5 29t-17 29.5t-31.5 22.5t-49.5 9h-133v-97h-438v97zM955 310v-52q0 -23 0.5 -52t0.5 -58t-10.5 -47.5t-26 -30t-33 -16t-31.5 -4.5q-14 -1 -29.5 -0.5
t-29.5 0.5h-32l-45 128h-439l-44 -128h-29h-34q-20 0 -45 1q-25 0 -41 9.5t-25.5 23t-13.5 29.5t-4 30v167h911zM163 247q-12 0 -21 -8.5t-9 -21.5t9 -21.5t21 -8.5q13 0 22 8.5t9 21.5t-9 21.5t-22 8.5zM316 123q-8 -26 -14 -48q-5 -19 -10.5 -37t-7.5 -25t-3 -15t1 -14.5
t9.5 -10.5t21.5 -4h37h67h81h80h64h36q23 0 34 12t2 38q-5 13 -9.5 30.5t-9.5 34.5q-5 19 -11 39h-368zM336 498v228q0 11 2.5 23t10 21.5t20.5 15.5t34 6h188q31 0 51.5 -14.5t20.5 -52.5v-227h-327z" />
    <glyph glyph-name="qrcode" unicode="&#xe615;" 
d="M152 676h305q9 0 14.5 -6t7.5 -18.5t2.5 -20.5t0 -25.5t-0.5 -22.5v-169q0 -6 0.5 -21.5t0 -24t-1.5 -19.5t-5.5 -17.5t-11.5 -9.5t-21 -3.5t-33.5 0.5t-23.5 1h-162q-6 0 -23 -0.5t-25.5 -0.5t-20.5 2t-18 7.5t-7 15.5v309q6 18 23 23zM194 607v-220h220v223h-219
q-1 0 -1 -3zM562 676h305q20 -7 23 -27v-301q-5 -22 -21 -27q-9 -2 -22 -2.5t-30.5 0.5t-24.5 1h-157q-7 0 -24.5 -1t-31 -1t-21.5 3t-12.5 9.5t-6.5 19t-2 21.5t0.5 25.5t0.5 22.5v158q0 8 -0.5 25.5t-0.5 27t2 21.5t7.5 18t15.5 7zM604 607v-220h220v223h-219q-2 0 -1 -3z
M294 542q23 5 39 -8t17 -35q0 -27 -22 -40t-45 -2q-16 9 -21.5 28t3.5 36.5t29 20.5zM704 542q39 8 51 -26q10 -30 -10 -51q-16 -16 -41 -12q-22 4 -30.5 24t0 40.5t30.5 24.5zM455 -96h-302q-19 6 -24 25v308q6 19 20 23q9 2 22 2.5t30.5 -0.5t24.5 -1h156q7 0 24.5 1
t31 0.5t22.5 -2.5q8 -3 13 -9.5t6.5 -18.5t2 -21t0 -25.5t-0.5 -23.5v-162q0 -6 0.5 -24.5t0 -26.5t-2.5 -20t-8 -18t-16 -7zM194 191v-220h220v223h-219q-1 0 -1 -3zM890 233v-86q-1 -7 -0.5 -46t-0.5 -47h-218v50q-5 2 -33 1.5t-34 -0.5q-2 -17 -1.5 -99.5t0.5 -101.5h-40
q-10 2 -16 8.5t-8 18.5t-2 21.5t0.5 27t0.5 24.5v158q0 7 -1 25.5t-0.5 32t2.5 21.5q2 5 4.5 8.5t7 5.5t8 3.5t11 2t11.5 0.5h13.5h12.5h148v-136h69q0 12 -0.5 68.5t1.5 67.5q17 0 31 -0.5t23.5 -7t10.5 -20.5zM300 128q25 2 40.5 -17.5t6.5 -45.5q-9 -23 -33.5 -27
t-42.5 12.5t-10.5 45t39.5 32.5zM745 -96h-74v41t1 39h73v-80zM890 -16v-52q-4 -21 -24 -28h-52q0 8 -0.5 41t1.5 39h75z" />
    <glyph glyph-name="search1" unicode="&#xe6cd;" 
d="M954 -12l-153 163q96 116 96 265q0 113 -56 209t-151.5 151.5t-208.5 55.5t-209 -55.5t-151.5 -151.5t-55.5 -209t55.5 -208.5t151.5 -151.5t209 -56q90 0 172 37q12 6 16.5 18.5t-1 24.5t-18 16.5t-24.5 -0.5q-69 -32 -145 -32q-96 0 -177 47.5t-128 128.5t-47 176.5
t47 176.5t128 128t176.5 47t176.5 -47t128.5 -128t47.5 -177q0 -141 -98 -244q-9 -9 -9 -22.5t10 -22.5l1 -1t1.5 -1t1.5 -1.5t1 -2.5l166 -177q9 -10 23 -10q13 0 22 9q10 9 10.5 22t-8.5 23z" />
    <glyph glyph-name="time" unicode="&#xe69d;" 
d="M512 832q-185 0 -316.5 -131.5t-131.5 -316.5t131.5 -316.5t316.5 -131.5t316.5 131.5t131.5 316.5t-131.5 316.5t-316.5 131.5zM512 0q-104 0 -192.5 51.5t-140 140t-51.5 192.5t51.5 192.5t140 140t192.5 51.5t192.5 -51.5t140 -140t51.5 -192.5t-51.5 -192.5
t-140 -140t-192.5 -51.5zM672 384h-160v224q0 13 -9.5 22.5t-22.5 9.5t-22.5 -9.5t-9.5 -22.5v-256q0 -13 9.5 -22.5t22.5 -9.5h192q13 0 22.5 9.5t9.5 22.5t-9.5 22.5t-22.5 9.5z" />
    <glyph glyph-name="likefill" unicode="&#xe6ce;" 
d="M736 768q-102 0 -176 -70q-6 -5 -48 -48l-47 47q-74 71 -177 71q-106 0 -181 -75t-75 -181q0 -100 76 -182l317 -321q42 -41 87 -41t87 42l316 320l3 2q25 31 37.5 49.5t24.5 54t12 76.5q0 106 -75 181t-181 75z" />
    <glyph glyph-name="like" unicode="&#xe6cf;" 
d="M512 -32q-45 0 -87 41l-319 323q-25 31 -37.5 49.5t-24.5 54t-12 76.5q0 106 75 181t181 75q81 0 147 -47q11 -7 13.5 -20t-5.5 -24t-21 -13.5t-24 5.5q-49 35 -110 35q-79 0 -135.5 -56.5t-56.5 -135.5q0 -43 13 -70t46 -69l316 -319q22 -22 41 -22q18 0 41 23l317 320
q58 62 58 137q0 79 -56.5 135.5t-135.5 56.5q-75 0 -130 -50l-134 -134q-9 -10 -22 -10t-22.5 9.5t-9.5 22.5t9 23l135 135q75 68 174 68q106 0 181 -75t75 -181q0 -100 -76 -182l-317 -320q-42 -42 -87 -42z" />
    <glyph glyph-name="videocam" unicode="&#xe678;" 
d="M725 364v149q0 20 -11.5 31.5t-30.5 11.5h-512q-20 0 -31.5 -11.5t-11.5 -31.5v-426q0 -20 11.5 -31.5t31.5 -11.5h512q19 0 30.5 11.5t11.5 31.5v149l171 -171v470z" />
    <glyph glyph-name="home1" unicode="&#xe6d0;" 
d="M980 491l-406 321q-26 21 -62 21t-62 -21l-406 -321q-10 -8 -11.5 -21t6.5 -23.5t21 -12t23 6.5l13 11v-388q0 -40 34.5 -68t74.5 -28h640q37 0 60 26.5t23 69.5v386l12 -9q8 -7 20 -7q15 0 25 12q8 11 6.5 24t-11.5 21zM480 32v177q0 14 32 14t32 -14v-177h-64zM864 64
q0 -32 -19 -32h-236l-0.5 0.5l-0.5 0.5v176q0 31 -25 54.5t-71 23.5t-71 -23.5t-25 -54.5v-176l0.5 -0.5l0.5 -0.5h-212q-15 0 -30 10.5t-15 21.5v438l329 260q9 7 22.5 7t22.5 -7l330 -261v-437z" />
    <glyph glyph-name="homefill" unicode="&#xe6d1;" 
d="M982 492l-409 320q-26 21 -62 21t-62 -21l-406 -321q-10 -8 -11.5 -21t6.5 -23.5t21 -12t24 6.5l13 11v-388q0 -40 34 -68t74 -28h640q38 0 61 26.5t23 69.5v389l14 -12q9 -7 20 -7q16 0 25 13q9 10 7 23t-12 22zM608 99v-67h-64h-64h-64v67v112q0 31 25 54t71 23t71 -23
t25 -54v-112z" />
    <glyph glyph-name="anonymous-iconfont" unicode="&#xe666;" 
d="M852 319h-309v309q0 13 -9 22t-22 9t-22 -9t-9 -22v-309h-309q-13 0 -22 -9t-9 -22t9 -22t22 -9h309v-309q0 -13 9 -22t22 -9t22 9t9 22v309h309q13 0 22 9t9 22t-9 22t-22 9z" />
    <glyph glyph-name="wenhao" unicode="&#xe671;" 
d="M450 40v-93h93v93h-93zM689 360q21 36 21 80q0 75 -58 127.5t-155 52.5q-91 0 -147 -49t-67 -142l83 -10q11 69 46 101.5t87 32.5q53 0 90 -35.5t37 -83.5q0 -26 -12.5 -48t-54.5 -59.5t-59 -56.5q-22 -27 -32 -53q-13 -35 -13 -82v-25h78q1 49 7 70.5t18 38.5t52 52
q59 52 79 89v0z" />
    <glyph glyph-name="dot" unicode="&#xe68a;" 
d="M671 322q0 -66 -46.5 -112.5t-112.5 -46.5t-112.5 46.5t-46.5 112.5t46.5 112.5t112.5 46.5t112.5 -46.5t46.5 -112.5z" />
    <glyph glyph-name="add" unicode="&#xe6d7;" 
d="M826 370h-244v244q0 29 -20.5 49.5t-49.5 20.5t-49.5 -20.5t-20.5 -49.5v-244h-244q-29 0 -49 -20.5t-20 -49t20 -49t49 -20.5h244v-244q0 -29 20.5 -49.5t49.5 -20.5t49.5 20.5t20.5 49.5v244h244q29 0 49 20.5t20 49t-20 49t-49 20.5z" />
    <glyph glyph-name="close01" unicode="&#xe68e;" 
d="M835 576l-60 63l-263 -275v0v0v0l-263 275l-60 -63l262 -276l-262 -276l60 -63l263 275v0v0v0l263 -275l60 63l-262 276z" />
    <glyph glyph-name="view" unicode="&#xe6a4;" 
d="M512.5 691q-75.5 0 -153 -30.5t-135 -74t-104 -89t-70.5 -77t-24 -37t24 -37t70.5 -77t104 -88.5t135 -73.5t153 -30.5t153 30.5t135 73.5t104 88.5t70.5 77t24 37t-24 37t-70.5 77t-104 89t-135 74t-153 30.5zM512.5 223q-39.5 0 -80 16t-70.5 38.5t-54.5 46.5t-37 40.5
t-12.5 19t12.5 19t37 40.5t54.5 46.5t70.5 38.5t80 16t80 -16t70.5 -38.5t54.5 -46.5t37 -40.5t12.5 -19t-12.5 -19t-37 -40.5t-54.5 -46.5t-70.5 -38.5t-80 -16zM512 481q-24 0 -48.5 -9.5t-42.5 -23.5t-33 -28.5t-22.5 -24.5t-7.5 -11.5t7.5 -11.5t22.5 -24.5t33 -28
t42.5 -23.5t48.5 -10t48.5 10t43 23.5t33 28t22.5 24.5t8 11.5t-8 11.5t-22.5 24.5t-33 28.5t-43 23.5t-48.5 9.5zM512.5 330q-22.5 0 -38.5 15.5t-16 38t16 38.5t38.5 16t38 -16t15.5 -38.5t-15.5 -38t-38 -15.5z" />
    <glyph glyph-name="youjian1" unicode="&#xe6d6;" 
d="M900 607h-776q-34 0 -58.5 -22.5t-24.5 -54.5v-460q0 -32 24.5 -54.5t58.5 -22.5h776q34 0 58.5 22.5t24.5 54.5v460q0 32 -24.5 54.5t-58.5 22.5v0zM96 70v450l245 -226v0l-245 -226v2v0zM136 556h752l-376 -347l-376 347v0zM380 258l132 -122l132 123l233 -215h-729
l232 214v0zM684 294h-1l245 226v-450l-244 224v0z" />
    <glyph glyph-name="markzhuanhuan" unicode="&#xe6c9;" 
d="M151 812h731v-1024l-366 366l-365 -366v1024z" />
    <glyph glyph-name="icon_close_circle" unicode="&#xe687;" 
d="M260.5 561q-52.5 -52 -79.5 -120t-27 -136.5t27 -136.5t80 -120q69 -70 162.5 -94.5t187 0t163.5 94.5t94.5 163.5t0 186.5t-94.5 163q-52 52 -120 79.5t-136.5 27.5t-136.5 -27.5t-120.5 -79.5zM708 462l-155 -155l155 -155q12 -11 5 -18l-19 -19q-7 -7 -19 5l-155 155
l-155 -155q-12 -12 -18 -5l-20 19q-6 7 5 18l155 155l-155 155q-11 12 -5 19l20 19q6 7 18 -5l155 -155l155 155q12 12 19 5l19 -19q7 -7 -5 -19z" />
    <glyph glyph-name="focus" unicode="&#xe69e;" 
d="M512 512q-53 0 -90.5 -37.5t-37.5 -90.5t37.5 -90.5t90.5 -37.5t90.5 37.5t37.5 90.5t-37.5 90.5t-90.5 37.5zM512 320q-26 0 -45 19t-19 45t19 45t45 19t45 -19t19 -45t-19 -45t-45 -19zM928 416h-1q-12 153 -121 262t-262 121v1q0 13 -9.5 22.5t-22.5 9.5t-22.5 -9.5
t-9.5 -22.5v-1q-153 -12 -262 -121t-121 -262h-1q-13 0 -22.5 -9.5t-9.5 -22.5t9.5 -22.5t22.5 -9.5h1q12 -153 121 -262t262 -121v-1q0 -13 9.5 -22.5t22.5 -9.5t22.5 9.5t9.5 22.5v1q153 12 262 121t121 262h1q13 0 22.5 9.5t9.5 22.5t-9.5 22.5t-22.5 9.5zM544 33v63
q0 13 -9.5 22.5t-22.5 9.5t-22.5 -9.5t-9.5 -22.5v-63q-127 11 -217.5 101.5t-101.5 217.5h63q13 0 22.5 9.5t9.5 22.5t-9.5 22.5t-22.5 9.5h-63q11 127 101.5 217.5t217.5 101.5v-63q0 -13 9.5 -22.5t22.5 -9.5t22.5 9.5t9.5 22.5v63q127 -11 217.5 -101.5t101.5 -217.5
h-63q-13 0 -22.5 -9.5t-9.5 -22.5t9.5 -22.5t22.5 -9.5h63q-11 -127 -101.5 -217.5t-217.5 -101.5z" />
    <glyph glyph-name="angledoubleright" unicode="&#xe67d;" 
d="M231 25.5q0 7.5 6 13.5l225 224l-225 225q-6 6 -6 13t6 13l29 29q5 6 13 6t13 -6l266 -267q6 -5 6 -13t-6 -13l-266 -266q-6 -6 -13 -6t-13 6l-29 28q-6 6 -6 13.5zM451 25.5q0 7.5 5 13.5l225 224l-225 225q-5 6 -5 13t5 13l29 29q6 6 13.5 6t13.5 -6l266 -267
q5 -5 5 -13t-5 -13l-266 -266q-6 -6 -13.5 -6t-13.5 6l-29 28q-5 6 -5 13.5z" />
    <glyph glyph-name="angledoubleleft" unicode="&#xe67e;" 
d="M249 263q0 8 6 13l266 267q5 6 13.5 6t12.5 -6l28 -29q7 -5 7 -13t-7 -13l-224 -225l224 -224q7 -6 7 -13.5t-7 -13.5l-28 -28q-5 -6 -12.5 -6t-13.5 6l-266 266q-6 6 -6 13zM468 263q0 8 6 13l266 267q6 6 13.5 6t13.5 -6l29 -29q5 -5 5 -13t-5 -13l-226 -225l226 -224
q5 -6 5 -13.5t-5 -13.5l-29 -28q-6 -6 -13.5 -6t-13.5 6l-266 266q-6 6 -6 13z" />
    <glyph glyph-name="playcircleoutline" unicode="&#xe66d;" 
d="M427 108l256 192l-256 192v-384zM512 727q-116 0 -214.5 -57t-155.5 -155.5t-57 -214.5t57 -214.5t155.5 -155.5t214.5 -57t214.5 57t155.5 155.5t57 214.5t-57 214.5t-155.5 155.5t-214.5 57zM512 -41q-93 0 -171.5 45.5t-124 124t-45.5 171.5t45.5 171.5t124 124
t171.5 45.5t171.5 -45.5t124 -124t45.5 -171.5t-45.5 -171.5t-124 -124t-171.5 -45.5z" />
    <glyph glyph-name="zhongchuan" unicode="&#xe7cc;" 
d="M881 457v1v-5v-2q-1 -17 -13.5 -29t-29.5 -12h-218q-18 0 -30.5 12.5t-12.5 30.5t12.5 31t30.5 13h125q-88 85 -211 85q-126 0 -215 -89.5t-89 -215.5t89 -215t215 -89q68 0 128 28t102 77q13 20 37 20q18 0 31 -12.5t13 -30.5q0 -16 -12 -29l1 -1q-55 -65 -133 -102
t-167 -37q-106 0 -196 52t-142.5 142.5t-52.5 197t52.5 196.5t142.5 142.5t196 52.5q149 0 260 -100v102q0 18 13 30.5t31 12.5t30.5 -12.5t12.5 -30.5v-214z" />
    <glyph glyph-name="portrait" unicode="&#xe65e;" 
d="M512.5 291q38.5 0 66 28t27.5 66.5t-27.5 66t-66 27.5t-66.5 -27.5t-28 -66t28 -66.5t66.5 -28zM704 120q0 30 -35.5 52.5t-78 32t-78.5 9.5q-35 0 -78 -10.5t-78.5 -33t-35.5 -50.5v-34h384v34zM811 684h-598q-35 0 -60 -25t-25 -60v-598q0 -35 25 -60t60 -25h598
q35 0 60 25t25 60v598q0 35 -25 60t-60 25zM811 1h-598v598h598v-598z" />
    <glyph glyph-name="accesstime" unicode="&#xe658;" 
d="M512.5 727q-115.5 0 -214 -57.5t-156 -156t-57.5 -214t57.5 -214t156 -155.5t214 -57t214 57t155.5 155.5t57 214t-57 214t-155.5 156t-214 57.5zM512.5 -42q-92.5 0 -171.5 46t-124.5 124.5t-45.5 171t45.5 171.5t124.5 124.5t171.5 45.5t171 -45.5t124.5 -124.5
t46 -171.5t-46 -171t-124.5 -124.5t-171 -46zM534 513h-64v-256l222 -137l34 56l-192 115v222z" />
    <glyph glyph-name="accountcircle" unicode="&#xe668;" 
d="M512.5 727q-115.5 0 -214 -57.5t-156 -156t-57.5 -214t57.5 -214t156 -155.5t214 -57t214 57t155.5 155.5t57 214t-57 214t-155.5 156t-214 57.5zM512.5 599q54.5 0 91 -37t36.5 -91.5t-36.5 -91.5t-91 -37t-91.5 37t-37 91.5t37 91.5t91.5 37zM512.5 -8
q-78.5 0 -146 37.5t-110.5 99.5q0 30 28 56.5t68.5 42t83.5 24.5t76.5 9t76 -9t83.5 -24.5t68.5 -42t27.5 -56.5q-42 -62 -109.5 -99.5t-146 -37.5z" />
    <glyph glyph-name="addbox" unicode="&#xe65f;" 
d="M811 684h-598q-35 0 -60 -25t-25 -60v-598q0 -35 25 -60t60 -25h598q35 0 60 25t25 60v598q0 35 -25 60t-60 25zM726 257h-171v-171h-85v171h-171v85h171v171h85v-171h171v-85z" />
    <glyph glyph-name="checkbox" unicode="&#xe660;" 
d="M811 684h-598q-35 0 -60 -25t-25 -60v-598q0 -35 25 -60t60 -25h598q35 0 60 25t25 60v598q0 35 -25 60t-60 25zM427 86l-214 214l60 59l154 -153l324 324l60 -60z" />
    <glyph glyph-name="explore" unicode="&#xe67f;" 
d="M512 347q-19 0 -33 -14t-14 -33t14 -33t33 -14t33 14t14 33t-14 33t-33 14zM512.5 727q-115.5 0 -214 -57.5t-156 -156t-57.5 -214t57.5 -214t156 -155.5t214 -57t214 57t155.5 155.5t57 214t-57 214t-155.5 156t-214 57.5zM606 206l-350 -162l162 350l350 162z" />
    <glyph glyph-name="forum" unicode="&#xe662;" 
d="M893 554h-84v-381h-551v-85q0 -19 12 -30.5t31 -11.5h465l170 -170v635q0 19 -12 31t-31 12zM724 300v381q0 19 -11.5 30.5t-30.5 11.5h-551q-19 0 -30.5 -11.5t-11.5 -30.5v-593l169 169h424q19 0 30.5 12t11.5 31z" />
    <glyph glyph-name="history" unicode="&#xe670;" 
d="M534 705q-111 0 -205 -55.5t-145 -149.5l-99 99v-278h278l-120 120q43 81 119.5 130t171.5 49q86 0 159.5 -43.5t117 -117t43.5 -159.5t-43.5 -160t-117 -117t-159.5 -43q-104 0 -185.5 59t-117.5 154h-90q36 -130 145 -214.5t248 -84.5q111 0 204.5 55t147 148t53.5 203
q0 109 -54.5 202.5t-148 148t-202.5 54.5zM470 492v-218l200 -119l34 55l-170 103v179h-64z" />
    <glyph glyph-name="removecircle" unicode="&#xe66c;" 
d="M512.5 727q-115.5 0 -214 -57.5t-156 -156t-57.5 -214t57.5 -214t156 -155.5t214 -57t214 57t155.5 155.5t57 214t-57 214t-155.5 156t-214 57.5zM726 257h-427v85h427v-85z" />
    <glyph glyph-name="thumbup" unicode="&#xe659;" 
d="M43 -127h170v512h-170v-512zM982 342q0 36 -25 61t-61 25h-268l42 196v13q0 21 -17 47l-47 43l-282 -282q-25 -19 -25 -60v-427q0 -35 25 -60t60 -25h384q26 0 46.5 14t30.5 37l133 303q4 9 4 30v85v0v0z" />
    <glyph glyph-name="reply" unicode="&#xe65a;" 
d="M495 440v173l-410 -290l410 -291v171q42 0 69.5 -1t67 -6t67 -14t62.5 -26.5t63 -42.5t58 -62t57 -85q0 39 -2.5 72.5t-12.5 84t-27.5 90.5t-51 84t-79 73.5t-115.5 49.5t-156 20z" />
    <glyph glyph-name="textsms" unicode="&#xe657;" 
d="M853 715h-682q-36 0 -61 -25t-25 -61v-768l171 171h597q36 0 61 25t25 60v512q0 36 -25 61t-61 25zM384 331h-85v85h85v-85zM555 331h-86v85h86v-85zM725 331h-85v85h85v-85z" />
    <glyph glyph-name="alarmon" unicode="&#xe672;" 
d="M939 568l-196 164l-55 -65l196 -164zM336 667l-55 66l-196 -165l55 -65zM511.5 641q-104.5 0 -192.5 -51t-139.5 -139.5t-51.5 -193t51.5 -193t139.5 -140t192.5 -51.5t193 51.5t140 140t51.5 193t-51.5 193t-140 139.5t-193 51zM512 -41q-124 0 -211.5 87.5t-87.5 211
t87.5 211t211.5 87.5t211.5 -87.5t87.5 -211t-87.5 -211t-211.5 -87.5zM449 192l-90 91l-45 -46l135 -135l257 256l-46 45z" />
    <glyph glyph-name="assignment" unicode="&#xe679;" 
d="M811 684h-179q-13 38 -46 61.5t-74 23.5t-74 -23.5t-46 -61.5h-179q-35 0 -60 -25t-25 -60v-598q0 -35 25 -60t60 -25h598q35 0 60 25t25 60v598q0 35 -25 60t-60 25zM512 684q18 0 30.5 -12.5t12.5 -30t-12.5 -30t-30.5 -12.5t-30.5 12.5t-12.5 30t12.5 30t30.5 12.5z
M597 87h-298v85h298v-85zM725 257h-426v86h426v-86zM725 428h-426v85h426v-85z" />
    <glyph glyph-name="assignmentind" unicode="&#xe661;" 
d="M811 684h-179q-13 38 -46 61.5t-74 23.5t-74 -23.5t-46 -61.5h-179q-35 0 -60 -25t-25 -60v-598q0 -35 25 -60t60 -25h598q35 0 60 25t25 60v598q0 35 -25 60t-60 25zM512 684q18 0 30.5 -12.5t12.5 -30t-12.5 -30t-30.5 -12.5t-30.5 12.5t-12.5 30t12.5 30t30.5 12.5z
M512 513q53 0 90.5 -37.5t37.5 -90.5t-37.5 -90.5t-90.5 -37.5t-90.5 37.5t-37.5 90.5t37.5 90.5t90.5 37.5zM768 1h-512v60q0 30 27.5 56.5t68.5 42t83.5 24.5t76.5 9t76.5 -9t83.5 -24.5t68.5 -42t27.5 -56.5v-60z" />
    <glyph glyph-name="keyboardarrowdown" unicode="&#xe663;" 
d="M316 462l196 -196l196 196l60 -61l-256 -256l-256 256z" />
    <glyph glyph-name="keyboardarrowup" unicode="&#xe664;" 
d="M316 154l196 196l196 -196l60 61l-256 256l-256 -256z" />
    <glyph glyph-name="language" unicode="&#xe65b;" 
d="M512 727q-116 0 -214.5 -57t-155.5 -155.5t-57 -214.5t57 -214.5t155.5 -155.5t214.5 -57t214 57t155.5 155.5t57.5 214.5t-57.5 214.5t-155.5 155.5t-214 57zM807 471h-126q-21 82 -58 152q120 -42 184 -152zM512 640q54 -78 81 -169h-162q27 91 81 169zM182 215
q-11 43 -11 85t11 85h144q-6 -47 -6 -85q0 -39 6 -85h-144zM217 129h125q22 -82 59 -152q-120 41 -184 152zM342 471h-125q64 111 184 152q-37 -70 -59 -152zM512 -40q-54 78 -81 169h162q-27 -91 -81 -169zM612 215h-200q-7 47 -7 85t7 85h200q7 -47 7 -85t-7 -85zM623 -23
q37 70 59 152h125q-64 -110 -184 -152zM698 215q6 49 6 85q0 39 -6 85h144q11 -44 11 -85q0 -43 -11 -85h-144z" />
    <glyph glyph-name="link" unicode="&#xe690;" 
d="M166 384q0 55 39 93.5t94 38.5h170v81h-170q-89 0 -151.5 -62.5t-62.5 -150.5t62.5 -150.5t151.5 -62.5h170v81h-170q-55 0 -94 38.5t-39 93.5zM341 341h342v86h-342v-86zM725 597h-170v-81h170q55 0 94 -38.5t39 -93.5t-39 -93.5t-94 -38.5h-170v-81h170
q89 0 151.5 62.5t62.5 150.5t-62.5 150.5t-151.5 62.5z" />
    <glyph glyph-name="livehelp" unicode="&#xe680;" 
d="M811 715h-598q-35 0 -60 -25t-25 -61v-597q0 -35 25 -60t60 -25h171l128 -128l128 128h171q35 0 60 25t25 60v597q0 36 -25 61t-60 25zM555 32h-86v85h86v-85zM643 362l-38 -39q-27 -26 -38.5 -51t-11.5 -69h-86v21q0 70 50 121l53 54q25 24 25 59.5t-25 60.5t-60 25
t-60 -25t-25 -60h-86q0 70 50 120t121 50t121 -50t50 -120q0 -57 -40 -97z" />
    <glyph glyph-name="locallibrary" unicode="&#xe66e;" 
d="M512 319q-77 72 -176 112t-208 40v-470q109 0 208 -39.5t176 -111.5q77 72 176 111.5t208 39.5v470q-109 0 -208 -40t-176 -112zM512 471q53 0 90.5 37.5t37.5 90.5t-37.5 90.5t-90.5 37.5t-90.5 -37.5t-37.5 -90.5t37.5 -90.5t90.5 -37.5z" />
    <glyph glyph-name="loyalty" unicode="&#xe65c;" 
d="M913 318l-383 384q-25 25 -61 25h-298q-36 0 -61 -25t-25 -61v-298q0 -36 26 -61l384 -384q24 -25 60 -25q35 0 60 25l299 299q25 25 25 60q0 36 -26 61zM234.5 513q-26.5 0 -45 19t-18.5 45.5t18.5 45t45 18.5t45.5 -18.5t19 -45t-19 -45.5t-45.5 -19zM737 160
l-182 -182l-183 182q-31 32 -31 76t31.5 75.5t75.5 31.5q45 0 76 -32l31 -31l31 31q31 32 75 32t75.5 -31.5t31.5 -75.5t-31 -76z" />
    <glyph glyph-name="mylibrarybooks" unicode="&#xe67a;" 
d="M171 556h-86v-597q0 -36 25 -61t61 -25h597v86h-597v597zM853 727h-512q-35 0 -60 -25t-25 -61v-512q0 -35 25 -60t60 -25h512q36 0 61 25t25 60v512q0 36 -25 61t-61 25zM811 343h-427v85h427v-85zM640 172h-256v85h256v-85zM811 513h-427v86h427v-86z" />
    <glyph glyph-name="mylocation" unicode="&#xe669;" 
d="M512 471q-71 0 -121 -50t-50 -121t50 -121t121 -50t121 50t50 121t-50 121t-121 50zM893 343q-14 133 -109.5 228.5t-228.5 109.5v88h-86v-88q-133 -14 -228.5 -109.5t-109.5 -228.5h-88v-86h88q14 -133 109.5 -228.5t228.5 -109.5v-88h86v88q133 14 228.5 109.5
t109.5 228.5h88v86h-88zM512 1q-124 0 -211.5 87.5t-87.5 211.5t87.5 211.5t211.5 87.5t211.5 -87.5t87.5 -211.5t-87.5 -211.5t-211.5 -87.5v0z" />
    <glyph glyph-name="phone" unicode="&#xe676;" 
d="M283 351q46 -90 118 -162t163 -119l94 95q18 18 43 10q74 -24 152 -24q18 0 30.5 -12.5t12.5 -30.5v-149q0 -18 -12.5 -30.5t-30.5 -12.5q-147 0 -281.5 57.5t-231.5 154.5t-154.5 231.5t-57.5 281.5q0 18 12.5 30.5t30.5 12.5h149q18 0 30.5 -12.5t12.5 -30.5
q0 -78 24 -152q8 -25 -10 -43z" />
    <glyph glyph-name="permcontactcal" unicode="&#xe66f;" 
d="M811 684h-43v85h-85v-85h-342v85h-85v-85h-43q-35 0 -60 -25t-25 -60v-598q0 -35 25 -60t60 -25h598q35 0 60 25t25 60v598q0 35 -25 60t-60 25zM512 556q53 0 90.5 -37.5t37.5 -90.5t-37.5 -90.5t-90.5 -37.5t-90.5 37.5t-37.5 90.5t37.5 90.5t90.5 37.5zM768 44h-512
v43q0 30 27.5 56t68.5 42t83.5 25t76.5 9t76.5 -9t83.5 -25t68.5 -42t27.5 -56v-43z" />
    <glyph glyph-name="publish" unicode="&#xe66a;" 
d="M213 641v-85h598v85h-598zM213 215h171v-256h256v256h171l-299 298z" />
    <glyph glyph-name="removeredeye" unicode="&#xe67b;" 
d="M512 620q-158 0 -285.5 -88.5t-183.5 -231.5q56 -143 183.5 -231.5t285.5 -88.5t285.5 88.5t183.5 231.5q-56 143 -183.5 231.5t-285.5 88.5zM512 87q-88 0 -150.5 62.5t-62.5 150.5t62.5 150.5t150.5 62.5t150.5 -62.5t62.5 -150.5t-62.5 -150.5t-150.5 -62.5zM512 428
q-53 0 -90.5 -37.5t-37.5 -90.5t37.5 -90.5t90.5 -37.5t90.5 37.5t37.5 90.5t-37.5 90.5t-90.5 37.5z" />
    <glyph glyph-name="remove" unicode="&#xe667;" 
d="M811 257h-598v86h598v-86z" />
    <glyph glyph-name="addcircle" unicode="&#xe66b;" 
d="M513 715q-116 0 -214 -57.5t-155 -155.5t-57 -214t57 -214t155 -155.5t214 -57.5t214.5 57.5t155.5 155.5t57 214t-57 214t-155.5 155.5t-214.5 57.5zM727 245h-171v-170h-85v170h-171v86h171v170h85v-170h171v-86z" />
    <glyph glyph-name="search" unicode="&#xe600;" 
d="M661 215h-34l-11 11q67 78 67 181q0 115 -81.5 196t-196.5 81t-196 -81t-81 -196t81 -196.5t196 -81.5q103 0 181 67l11 -12v-33l214 -213l63 63zM405.5 215q-79.5 0 -136 56t-56.5 135.5t56.5 136t136 56.5t135.5 -56.5t56 -136t-56 -135.5t-135.5 -56z" />
    <glyph glyph-name="mail" unicode="&#xe601;" 
d="M853 641h-682q-36 0 -60.5 -25t-24.5 -60l-1 -512q0 -35 25 -60t61 -25h682q36 0 61 25t25 60v512q0 35 -25 60t-61 25zM853 471l-341 -214l-341 214v85l341 -213l341 213v-85z" />
    <glyph glyph-name="personadd" unicode="&#xe602;" 
d="M640 300q71 0 121 50t50 120.5t-50 120.5t-121 50t-121 -50t-50 -120.5t50 -120.5t121 -50zM256 385v128h-85v-128h-128v-85h128v-128h85v128h128v85h-128zM640 215q-45 0 -101.5 -11t-111.5 -31.5t-91.5 -54.5t-36.5 -74v-85h682v85q0 40 -36.5 74t-91.5 54.5
t-111.5 31.5t-101.5 11z" />
    <glyph glyph-name="person" unicode="&#xe604;" 
d="M512 300q71 0 121 50t50 120.5t-50 120.5t-121 50t-121 -50t-50 -120.5t50 -120.5t121 -50zM512 215q-45 0 -101.5 -11t-111.5 -31.5t-91.5 -54.5t-36.5 -74v-85h682v85q0 40 -36.5 74t-91.5 54.5t-111.5 31.5t-101.5 11z" />
    <glyph glyph-name="arrowdropdown" unicode="&#xe603;" 
d="M299 385l213 -213l213 213h-426z" />
    <glyph glyph-name="drafts" unicode="&#xe605;" 
d="M938 471q0 47 -40 72l-386 226l-386 -226q-41 -25 -41 -72v-427q0 -35 25 -60t61 -25h682q36 0 61 25t25 60zM512 257l-352 221l352 206l352 -206z" />
    <glyph glyph-name="notifications" unicode="&#xe606;" 
d="M490.5 -43q35.5 0 60.5 25t25 61h-171q0 -36 25 -61t60.5 -25zM768 213v235q0 97 -60.5 172.5t-152.5 97.5v29q0 26 -19 45t-45.5 19t-45 -19t-18.5 -45v-29q-93 -22 -153.5 -97.5t-60.5 -172.5v-235l-85 -85v-43h725v43z" />
    <glyph glyph-name="notificationsoff" unicode="&#xe607;" 
d="M490.5 -127q35.5 0 60.5 25t25 61h-171q0 -36 25 -61t60.5 -25zM768 364q0 97 -60.5 172.5t-152.5 97.5v29q0 26 -19 45t-45.5 19t-45 -19t-18.5 -45v-29q-29 -7 -62 -24l403 -403v157zM757 1l85 -85l54 54l-714 714l-54 -54l125 -125q-40 -65 -40 -141v-235l-85 -85v-43
h629v0z" />
    <glyph glyph-name="notificationson" unicode="&#xe608;" 
d="M302 659l-61 61q-78 -59 -124.5 -146.5t-51.5 -188.5h85q5 84 45.5 155.5t106.5 118.5zM874 385h85q-5 101 -51.5 188.5t-124.5 146.5l-61 -61q66 -47 106.5 -118.5t45.5 -155.5zM789 364q0 97 -60 172.5t-153 97.5v29q0 26 -18.5 45t-45.5 19t-45.5 -19t-18.5 -45v-29
q-93 -22 -153 -97.5t-60 -172.5v-235l-86 -85v-43h726v43l-86 85v235zM512 -127q8 0 17 2q44 9 62 50q6 16 6 34h-170q0 -36 25 -61t60 -25z" />
    <glyph glyph-name="book" unicode="&#xe609;" 
d="M768 727h-512q-35 0 -60 -25t-25 -61v-682q0 -36 25 -61t60 -25h512q35 0 60 25t25 61v682q0 36 -25 61t-60 25zM256 641h213v-341l-106 64l-107 -64v341z" />
    <glyph glyph-name="bookmarkoutline" unicode="&#xe60a;" 
d="M725 684h-426q-36 0 -60.5 -25t-24.5 -60l-1 -683l299 128l299 -128v683q0 35 -25 60t-61 25zM725 44l-213 93l-213 -93v555h426v-555z" />
    <glyph glyph-name="bookmark" unicode="&#xe60b;" 
d="M725 684h-426q-36 0 -60.5 -25t-24.5 -60l-1 -683l299 128l299 -128v683q0 35 -25 60t-61 25z" />
    <glyph glyph-name="graphicclass" unicode="&#xe60e;" 
d="M597 727h-341q-35 0 -60 -25t-25 -61v-682q0 -36 24.5 -61t60.5 -25h512q35 0 60 25t25 61v512zM256 59l128 164l91 -110l128 165l165 -219h-512zM550 428v235l235 -235h-235z" />
    <glyph glyph-name="description" unicode="&#xe60f;" 
d="M597 715h-341q-35 0 -60 -25t-25 -61v-682q0 -36 24.5 -61t60.5 -25h512q35 0 60 25t25 61v512zM683 32h-342v85h342v-85zM683 203h-342v85h342v-85zM555 416v235l234 -235h-234z" />
    <glyph glyph-name="phone1" unicode="&#xe610;" 
d="M683 769h-342q-53 0 -90.5 -37.5t-37.5 -90.5v-682q0 -53 37.5 -90.5t90.5 -37.5h342q53 0 90.5 37.5t37.5 90.5v682q0 53 -37.5 90.5t-90.5 37.5zM597 -84h-170v43h170v-43zM736 44h-448v597h448v-597z" />
    <glyph glyph-name="swaphoriz" unicode="&#xe611;" 
d="M298 343l-170 -171l170 -171v128h299v86h-299v128zM896 428l-170 171v-128h-299v-86h299v-128z" />
    <glyph glyph-name="audioclass" unicode="&#xe60d;" 
d="M597 727h-341q-35 0 -60 -25t-25 -61v-682q0 -36 24.5 -61t60.5 -25h512q35 0 60 25t25 61v512zM683 257h-128v-186q0 -44 -31.5 -75.5t-75.5 -31.5t-75.5 31.5t-31.5 75.5t31.5 75.5t75.5 31.5q35 0 64 -22v187h171v-86zM550 428v235l235 -235h-235z" />
    <glyph glyph-name="flashclass" unicode="&#xe612;" 
d="M597 727h-341q-35 0 -60 -25t-25 -61v-682q0 -36 24.5 -61t60.5 -25h512q35 0 60 25t25 61v512zM518 279h-106v-64h106v-64h-106v-150h-64v342h170v-64zM668 1h-64v342h64v-342zM550 428v235l235 -235h-235z" />
    <glyph glyph-name="pptclass" unicode="&#xe613;" 
d="M597 727h-341q-35 0 -60 -25t-25 -61v-682q0 -36 24.5 -61t60.5 -25h512q35 0 60 25t25 61v512zM619 172q0 -18 -12.5 -30.5t-30.5 -12.5h-107v-149h-64v363h171q18 0 30.5 -12.5t12.5 -30.5v-128zM550 428v235l235 -235h-235zM469 279h86v-86h-86v86z" />
    <glyph glyph-name="videoclass" unicode="&#xe614;" 
d="M597 727h-341q-35 0 -60 -25t-25 -61v-682q0 -36 24.5 -61t60.5 -25h512q35 0 60 25t25 61v512zM718 1l-156 91v-91h-256v256h256v-90l156 90v-256zM550 428v235l235 -235h-235z" />
    <glyph glyph-name="crown" unicode="&#xe616;" 
d="M853 486l-170 -171l-171 171l-171 -171l-170 171v-342v0h682v0v0v341v1zM171 59h682v-85h-682v85zM213 584zM171 583.5q0 17.5 12.5 30t30 12.5t30 -12.5t12.5 -30t-12.5 -30t-30 -12.5t-30 12.5t-12.5 30zM512 584zM469 583.5q0 17.5 12.5 30t30.5 12.5t30.5 -12.5
t12.5 -30t-12.5 -30t-30.5 -12.5t-30.5 12.5t-12.5 30zM811 584zM768 583.5q0 17.5 12.5 30t30 12.5t30 -12.5t12.5 -30t-12.5 -30t-30 -12.5t-30 12.5t-12.5 30z" />
    <glyph glyph-name="exit" unicode="&#xe617;" 
d="M85 598v-597q0 -35 25 -60t61 -25h682q36 0 61 25t25 60v85h-86v-85h-682v598h682v-85h86v84q0 36 -25 61t-61 25h-682q-36 0 -61 -25t-25 -61zM765 343h-426v-86h426v-128l171 171l-171 171v-128z" />
    <glyph glyph-name="arrowback" unicode="&#xe618;" 
d="M853 343h-519l238 238l-60 60l-341 -341l341 -341l60 60l-238 238h519v86z" />
    <glyph glyph-name="arrowdropup" unicode="&#xe619;" 
d="M299 215l213 213l213 -213h-426z" />
    <glyph glyph-name="arrowforward" unicode="&#xe61a;" 
d="M512 641l-60 -60l238 -238h-519v-86h519l-238 -238l60 -60l341 341z" />
    <glyph glyph-name="chevronleft" unicode="&#xe61b;" 
d="M658 496l-61 60l-256 -256l256 -256l61 60l-196 196z" />
    <glyph glyph-name="chevronright" unicode="&#xe61c;" 
d="M427 556l-61 -60l196 -196l-196 -196l61 -60l256 256z" />
    <glyph glyph-name="refresh" unicode="&#xe61d;" 
d="M753 541q-47 47 -109.5 73.5t-131.5 26.5q-93 0 -171.5 -45.5t-124 -124t-45.5 -171.5t45.5 -171.5t124 -124t171.5 -45.5q118 0 209.5 72t120.5 184h-89q-27 -76 -92.5 -123.5t-148.5 -47.5q-106 0 -181 75t-75 181t75 181t181 75q105 0 180 -76l-137 -137h298v298z" />
    <glyph glyph-name="menu" unicode="&#xe61e;" 
d="M128 44h768v85h-768v-85zM128 257h768v86h-768v-86zM128 556v-85h768v85h-768z" />
    <glyph glyph-name="android" unicode="&#xe61f;" 
d="M256 44q0 -18 12.5 -30.5t30.5 -12.5h42v-149q0 -27 19 -45.5t45.5 -18.5t45 18.5t18.5 45.5v149h86v-149q0 -27 18.5 -45.5t45 -18.5t45.5 18.5t19 45.5v149h42q18 0 30.5 12.5t12.5 30.5v427h-512v-427zM149.5 471q-26.5 0 -45.5 -19t-19 -45v-299q0 -27 19 -45.5
t45.5 -18.5t45 18.5t18.5 45.5v299q0 26 -18.5 45t-45 19zM874.5 471q-26.5 0 -45 -19t-18.5 -45v-299q0 -27 18.5 -45.5t45 -18.5t45.5 18.5t19 45.5v299q0 26 -19 45t-45.5 19zM663 720l55 55q7 7 7 15.5t-6.5 15t-15.5 6.5t-15 -6l-63 -63q-54 26 -113 26q-60 0 -114 -27
l-63 64q-6 6 -15 6t-15 -6t-6 -15t6 -15l56 -56q-49 -36 -77 -90t-28 -117h512q0 63 -28.5 117t-76.5 90zM427 599h-43v42h43v-42zM640 599h-43v42h43v-42z" />
    <glyph glyph-name="apple" unicode="&#xe620;" 
d="M791 268q0 36 12 70t24.5 53.5t34 39t26.5 23t14 9.5q-21 31 -49 52.5t-55.5 31t-46.5 13.5t-36 4q-35 4 -75 -8t-73 -25.5t-48 -13.5q-17 0 -75 23t-94 22q-65 -1 -121.5 -35.5t-90.5 -92.5q-32 -57 -40 -129t5.5 -141.5t39.5 -133t60 -112.5q20 -30 34.5 -48.5t36 -40
t44.5 -32t46 -9.5q30 1 78.5 21.5t89.5 20.5q40 0 88 -20.5t81 -20.5q25 1 47 11t42.5 30.5t33.5 37.5t34 47q44 64 71 146v0q-8 3 -17.5 8t-33 22.5t-41 39t-31.5 58t-15 79.5v0zM663 648q28 35 43 78t10 86q-39 -2 -81 -23.5t-70 -54.5q-27 -31 -43.5 -74t-10.5 -84
q41 -3 82 17.5t70 54.5v0z" />
    <glyph glyph-name="comment" unicode="&#xe621;" 
d="M938 641q0 36 -24.5 61t-60.5 25h-682q-36 0 -61 -25t-25 -61v-512q0 -35 25 -60t61 -25h597l171 -171zM768 215h-512v85h512v-85zM768 343h-512v85h512v-85zM768 471h-512v85h512v-85z" />
    <glyph glyph-name="favoriteoutline" unicode="&#xe622;" 
d="M704 684q-55 0 -106 -24t-86 -65q-35 41 -86 65t-106 24q-99 0 -167 -68t-68 -167q0 -26 6 -53t14 -50t26.5 -52t33 -50t44 -53t48.5 -52.5t59 -58t63 -58.5t71 -65l62 -56l62 56q48 44 71 65t63 58.5t59 58t48.5 52.5t44 53t33 50t26.5 52t14 50t6 53q0 99 -68 167
t-167 68zM516 20l-4 -4l-4 4q-57 52 -84 77t-71 66.5t-64.5 65t-48 57t-39.5 58t-21 52t-9 53.5q0 64 42.5 107t106.5 43q49 0 92 -28.5t60 -72.5h80q17 44 60 72.5t92 28.5q64 0 106.5 -43t42.5 -107q0 -26 -9 -53.5t-21 -52t-39.5 -58t-48 -57t-64.5 -65t-71 -66.5
t-84 -77z" />
    <glyph glyph-name="favorite" unicode="&#xe623;" 
d="M512 -99l-62 56q-48 44 -71 65t-63 58.5t-59 58t-48.5 52.5t-44 53t-33 50t-26.5 52t-14 50t-6 53q0 99 68 167t167 68q55 0 106 -24t86 -65q35 41 86 65t106 24q99 0 167 -68t68 -167q0 -26 -6 -53t-14 -50t-26.5 -52t-33 -50t-44 -53t-48.5 -52.5t-59 -58t-63 -58.5
t-71 -65z" />
    <glyph glyph-name="flag" unicode="&#xe624;" 
d="M614 556l-17 85h-384v-725h86v299h239l17 -86h298v427h-239z" />
    <glyph glyph-name="help" unicode="&#xe625;" 
d="M512 727q-116 0 -214 -57t-155.5 -155.5t-57.5 -214.5t57.5 -214.5t155.5 -155.5t214 -57t214.5 57t155.5 155.5t57 214.5t-57 214.5t-155.5 155.5t-214.5 57zM555 1h-86v86h86v-86zM643 332l-38 -39q-27 -27 -38.5 -52t-11.5 -69h-86v21q0 71 50 121l53 54q25 25 25 60
t-25 60t-60 25t-60 -25t-25 -60h-86q0 71 50 121t121 50t121 -50t50 -121q0 -56 -40 -96z" />
    <glyph glyph-name="home" unicode="&#xe626;" 
d="M427 -41v256h170v-256h214v341h128l-427 384l-427 -384h128v-341h214z" />
    <glyph glyph-name="importexport" unicode="&#xe627;" 
d="M384 684l-171 -170h128v-299h86v299h128zM683 86v299h-86v-299h-128l171 -170l171 170h-128z" />
    <glyph glyph-name="lock" unicode="&#xe628;" 
d="M768 471h-43v85q0 88 -62.5 150.5t-150.5 62.5t-150.5 -62.5t-62.5 -150.5v-85h-43q-35 0 -60 -25t-25 -61v-426q0 -36 25 -61t60 -25h512q35 0 60 25t25 61v426q0 36 -25 61t-60 25zM512 87q-35 0 -60 25t-25 60t25 60t60 25t60 -25t25 -60t-25 -60t-60 -25zM644 471
h-264v85q0 55 38.5 93.5t93.5 38.5t93.5 -38.5t38.5 -93.5v-85z" />
    <glyph glyph-name="noteadd" unicode="&#xe629;" 
d="M597 727h-341q-35 0 -60 -25t-25 -61v-682q0 -36 24.5 -61t60.5 -25h512q35 0 60 25t25 61v512zM683 129h-128v-128h-86v128h-128v86h128v128h86v-128h128v-86zM555 428v235l234 -235h-234z" />
    <glyph glyph-name="power" unicode="&#xe62a;" 
d="M469 684h86v-427h-86v427zM709 536l-61 -60q56 -35 89 -93t33 -126q0 -106 -75.5 -181.5t-182.5 -75.5t-182.5 75.5t-75.5 181.5q0 71 35.5 130.5t94.5 93.5v0l-61 61q-70 -47 -111 -122t-41 -163q0 -92 45.5 -171t124 -124.5t171.5 -45.5t171.5 45.5t124 124.5t45.5 171
q0 85 -38.5 158.5t-105.5 120.5z" />
    <glyph glyph-name="setting" unicode="&#xe62b;" 
d="M829 258q3 24 3 42t-3 42l90 70q14 11 5 28l-85 147q-9 16 -26 10l-106 -43q-34 26 -72 42l-16 113q-2 7 -8 12.5t-14 5.5h-170q-8 0 -14 -5.5t-7 -12.5l-16 -113q-39 -17 -73 -42l-106 43q-17 6 -26 -10l-85 -147q-9 -16 5 -28l90 -70q-3 -24 -3 -42t3 -42l-90 -70
q-14 -11 -5 -27l85 -148q9 -16 26 -9l106 42q34 -26 73 -42l16 -113q1 -7 7 -12.5t14 -5.5h170q8 0 14 5.5t7 12.5l16 113q39 17 73 42l106 -42q17 -7 26 9l85 148q9 15 -5 27zM512 151q-62 0 -105.5 43.5t-43.5 105.5t43.5 105.5t105.5 43.5t105.5 -43.5t43.5 -105.5
t-43.5 -105.5t-105.5 -43.5z" />
    <glyph glyph-name="share" unicode="&#xe62c;" 
d="M768 126q-48 0 -84 -33l-304 177q4 16 4 30t-4 30l301 175q37 -34 87 -34q53 0 90.5 37.5t37.5 90.5t-37.5 90.5t-90.5 37.5t-90.5 -37.5t-37.5 -90.5q0 -14 4 -30l-301 -176q-37 35 -87 35q-53 0 -90.5 -37.5t-37.5 -90.5t37.5 -90.5t90.5 -37.5q50 0 87 35l304 -178
q-3 -14 -3 -28q0 -51 36 -87.5t88 -36.5t88 36.5t36 88t-36 88t-88 36.5z" />
    <glyph glyph-name="starhalf" unicode="&#xe62d;" 
d="M939 396l-307 27l-120 282l-120 -283l-307 -26l233 -201l-70 -300l264 159l264 -159l-70 300zM512 134v396l73 -172l187 -16l-142 -123l43 -183z" />
    <glyph glyph-name="staroutline" unicode="&#xe62e;" 
d="M939 418l-307 26l-120 283l-120 -283l-307 -26l233 -202l-70 -300l264 159l264 -159l-70 300zM512 155l-160 -97l42 183l-141 123l186 16l73 172l73 -173l187 -16l-142 -123l43 -182z" />
    <glyph glyph-name="star" unicode="&#xe62f;" 
d="M512 75l264 -159l-70 300l233 202l-307 26l-120 283l-120 -283l-307 -26l233 -202l-70 -300z" />
    <glyph glyph-name="studydone" unicode="&#xe630;" 
d="M896 599q0 35 -25 60t-60 25h-598q-35 0 -60 -25t-25 -60v-598q0 -35 25 -60t60 -25h598q35 0 60 25t25 60v598zM213 1v598h598v-598h-598zM452 229l-93 92l-60 -60l153 -153l273 273l-61 61z" />
    <glyph glyph-name="study" unicode="&#xe631;" 
d="M811 684h-598q-35 0 -60 -25t-25 -60v-598q0 -35 25 -60t60 -25h598q35 0 60 25t25 60v598q0 35 -25 60t-60 25zM811 1h-598v598h598v-598z" />
    <glyph glyph-name="toc" unicode="&#xe632;" 
d="M128 428h597v85h-597v-85zM128 257h597v86h-597v-86zM128 87h597v85h-597v-85zM811 87h85v85h-85v-85zM811 513v-85h85v85h-85zM811 257h85v86h-85v-86z" />
    <glyph glyph-name="calendar" unicode="&#xe633;" 
d="M811 684h-43v85h-85v-85h-342v85h-85v-85h-43q-35 0 -60 -25t-25 -60v-598q0 -35 25 -60t60 -25h598q35 0 60 25t25 60v598q0 35 -25 60t-60 25zM811 1h-598v470h598v-470z" />
    <glyph glyph-name="contentcopy" unicode="&#xe634;" 
d="M683 769h-512q-36 0 -61 -25t-25 -60v-597h86v597h512v85zM811 599h-470q-35 0 -60 -25t-25 -61v-597q0 -35 25 -60t60 -25h470q35 0 60 25t25 60v597q0 36 -25 61t-60 25zM811 -84h-470v597h470v-597z" />
    <glyph glyph-name="delete" unicode="&#xe635;" 
d="M256 1q0 -35 25 -60t60 -25h342q35 0 60 25t25 60v512h-512v-512zM811 641h-150l-42 43h-214l-42 -43h-150v-85h598v85z" />
    <glyph glyph-name="done" unicode="&#xe636;" 
d="M384 122l-178 178l-60 -60l238 -239l512 512l-60 61z" />
    <glyph glyph-name="edit" unicode="&#xe637;" 
d="M128 76v-160h160l472 472l-160 160zM883 511q13 13 13 30.5t-13 30.5l-99 99q-13 13 -30.5 13t-30.5 -13l-78 -78l160 -160z" />
    <glyph glyph-name="filedownload" unicode="&#xe638;" 
d="M811 428h-171v256h-256v-256h-171l299 -299zM213 44v-85h598v85h-598z" />
    <glyph glyph-name="fileupdate" unicode="&#xe639;" 
d="M384 129h256v256h171l-299 299l-299 -299h171v-256zM213 44h598v-85h-598v85z" />
    <glyph glyph-name="help1" unicode="&#xe63a;" 
d="M512 727q-116 0 -214.5 -57t-155.5 -155.5t-57 -214.5t57 -214t155.5 -155.5t214.5 -57.5t214.5 57.5t155.5 155.5t57 214t-57 214.5t-155.5 155.5t-214.5 57zM555 1h-86v86h86v-86zM643 332l-38 -39q-27 -27 -38.5 -52t-11.5 -69h-86v21q0 71 50 121l53 54q25 25 25 60
t-25 60t-60 25t-60 -25t-25 -60h-86q0 71 50 121t121 50t121 -50t50 -121q0 -56 -40 -96z" />
    <glyph glyph-name="infooutline" unicode="&#xe63b;" 
d="M469 87h86v256h-86v-256zM512 727q-116 0 -214.5 -57t-155.5 -155.5t-57 -214.5t57 -214t155.5 -155.5t214.5 -57.5t214.5 57.5t155.5 155.5t57 214t-57 214.5t-155.5 155.5t-214.5 57zM512 -41q-93 0 -171.5 45.5t-124 124t-45.5 171.5t45.5 171.5t124 124t171.5 45.5
t171.5 -45.5t124 -124t45.5 -171.5t-45.5 -171.5t-124 -124t-171.5 -45.5zM469 428h86v85h-86v-85z" />
    <glyph glyph-name="info" unicode="&#xe63c;" 
d="M512 727q-116 0 -214.5 -57t-155.5 -155.5t-57 -214.5t57 -214t155.5 -155.5t214.5 -57.5t214.5 57.5t155.5 155.5t57 214t-57 214.5t-155.5 155.5t-214.5 57zM555 87h-86v256h86v-256zM555 428h-86v85h86v-85z" />
    <glyph glyph-name="send" unicode="&#xe63d;" 
d="M86 -84l895 384l-895 384l-1 -299l640 -85l-640 -85z" />
    <glyph glyph-name="today" unicode="&#xe63e;" 
d="M811 684h-43v85h-85v-85h-342v85h-85v-85h-43q-35 0 -60 -25t-25 -60v-598q0 -35 25 -60t60 -25h598q35 0 60 25t25 60v598q0 35 -25 60t-60 25zM811 1h-598v470h598v-470zM299 385h213v-213h-213v213z" />
    <glyph glyph-name="viewlist" unicode="&#xe63f;" 
d="M171 215h170v170h-170v-170zM171 1h170v171h-170v-171zM171 428h170v171h-170v-171zM384 215h512v170h-512v-170zM384 1h512v171h-512v-171zM384 599v-171h512v171h-512z" />
    <glyph glyph-name="viewmodule" unicode="&#xe640;" 
d="M171 343h213v256h-213v-256zM171 44h213v256h-213v-256zM427 44h213v256h-213v-256zM683 44h213v256h-213v-256zM427 343h213v256h-213v-256zM683 599v-256h213v256h-213z" />
    <glyph glyph-name="visibilityoff" unicode="&#xe641;" 
d="M512 513q88 0 150.5 -62.5t62.5 -150.5q0 -40 -15 -78l125 -125q99 83 147 203q-57 143 -184.5 231.5t-285.5 88.5q-87 0 -170 -30l92 -92q39 15 78 15zM85 630l98 -98l19 -19q-109 -86 -159 -213q56 -143 183.5 -231.5t285.5 -88.5q97 0 187 36l18 -18l125 -125l54 55
l-756 756zM321 394l66 -66q-3 -15 -3 -28q0 -53 37.5 -90.5t90.5 -37.5q13 0 28 3l66 -66q-46 -22 -94 -22q-88 0 -150.5 62.5t-62.5 150.5q0 48 22 94zM505 427l134 -134l1 7q0 53 -37.5 90.5t-90.5 37.5l-7 -1v0v0z" />
    <glyph glyph-name="visibility" unicode="&#xe642;" 
d="M512 620q-158 0 -285.5 -88.5t-183.5 -231.5q56 -143 183.5 -231.5t285.5 -88.5t285.5 88.5t183.5 231.5q-56 143 -183.5 231.5t-285.5 88.5zM512 87q-88 0 -150.5 62.5t-62.5 150.5t62.5 150.5t150.5 62.5t150.5 -62.5t62.5 -150.5t-62.5 -150.5t-150.5 -62.5zM512 428
q-53 0 -90.5 -37.5t-37.5 -90.5t37.5 -90.5t90.5 -37.5t90.5 37.5t37.5 90.5t-37.5 90.5t-90.5 37.5z" />
    <glyph glyph-name="administrator" unicode="&#xe643;" 
d="M640.5 300q70.5 0 120.5 50t50 120.5t-50 120.5t-120.5 50t-120.5 -50t-50 -120.5t50 -120.5t120.5 -50zM640.5 215q-45.5 0 -102 -11.5t-111 -31.5t-91.5 -54t-37 -74v-85h683v85q0 40 -37 74t-91.5 54t-111 31.5t-102 11.5zM339 251l34 59q4 7 -2 11l-36 28q1 10 1 17
t-1 17l36 28q6 4 2 11l-34 59q-4 6 -10 4l-43 -17q-14 10 -29 16l-6 46q-1 7 -9 7h-68q-7 0 -8 -7l-7 -46q-15 -6 -29 -16l-42 17q-7 2 -11 -4l-34 -59q-3 -6 2 -11l36 -28q-1 -10 -1 -17t1 -17l-36 -28q-5 -4 -2 -11l34 -59q4 -6 11 -4l42 18q14 -11 29 -17l7 -45
q1 -8 8 -8h68q8 0 9 8l6 45q16 6 29 17l43 -18q6 -2 10 4zM208 306q-25 0 -42.5 17.5t-17.5 42.5t17.5 42.5t42.5 17.5t42.5 -17.5t17.5 -42.5t-17.5 -42.5t-42.5 -17.5z" />
    <glyph glyph-name="qq" unicode="&#xe644;" 
d="M244 339q-4 8 -4 22q0 8 5 20.5t10 19.5q0 10 3.5 23t9.5 18q0 60 39.5 124t93.5 90q60 28 139 28q57 0 114 -24q21 -9 38.5 -20.5t30.5 -24t23.5 -29t18 -31.5t14 -36t11 -38.5t9.5 -42.5v-2q24 -35 24 -64q0 -6 -4 -17t-4 -16q0 -1 0.5 -2t1.5 -2t1 -2
q33 -48 51.5 -91.5t18.5 -89.5q0 -18 -8 -42.5t-24 -24.5q-4 0 -8.5 3t-8 7.5t-8 11.5t-6.5 11q-3 5 -6 11q-4 7 -4 8h-1l-2 -2q-26 -66 -57 -95q9 -9 26.5 -17t29.5 -17.5t15 -27.5q-1 -2 -1.5 -7t-3.5 -8q-27 -41 -129 -41q-23 0 -47.5 3.5t-42 8.5t-44.5 13q-7 2 -10 3
q-6 2 -19.5 2h-17.5q-17 -19 -54.5 -27.5t-72.5 -8.5q-15 0 -29.5 0.5t-39.5 4t-43 9t-32 17t-14 27.5q0 17 4 25.5t18 20.5q4 1 17 5.5t21 5.5q2 0 6 1l1 1l-1 2q-20 4 -46 44.5t-31 67.5l-3 1q-1 0 -5 -8q-7 -18 -23 -32.5t-33 -15.5h-1q-1 0 -2 2t-2 2q-10 23 -10 43
q0 118 108 200z" />
    <glyph glyph-name="qzone" unicode="&#xe645;" 
d="M895 392q-6 16 -22 19l-232 35l-103 222q-8 16 -25 16v0q-18 0 -25 -16l-105 -221l-232 -35q-16 -2 -21.5 -18t6.5 -28l168 -173l-40 -244q-3 -17 11 -27t29 -2l207 114l207 -115q7 -3 14 -3v0q12 0 20 8t8 19q0 6 -2 10l-39 239l169 172q12 12 7 28v0zM618 145h-212v26
l157 193h-143v31h193v-29l-159 -191h164v-30v0zM618 145z" />
    <glyph glyph-name="renren" unicode="&#xe646;" 
d="M447 681v-243q0 -126 -63 -229.5t-165 -153.5q-91 108 -91 248q0 93 42 174t114.5 135t162.5 69zM694 -33q-85 -47 -184 -47q-98 0 -183 47q69 43 117.5 105t65.5 134q18 -72 67 -134t117 -105zM896 303q0 -140 -91 -248q-102 50 -165 153.5t-63 229.5v243
q89 -15 162 -69t115 -135t42 -174z" />
    <glyph glyph-name="weibo" unicode="&#xe65d;" 
d="M829 196q0 -32 -17.5 -66t-51.5 -65t-80 -56t-108 -39.5t-129 -14.5t-130.5 15.5t-114.5 44t-82 72t-31 95.5q0 54 33.5 116t93.5 123q81 80 163 112t117 -3q31 -30 10 -99q-2 -7 -0.5 -10t4.5 -3.5t7 0.5t6 2l3 1q66 28 117 28t73 -29q22 -30 0 -85q-1 -6 -2 -9.5
t2.5 -6t5.5 -3.5t8 -3q27 -9 49 -22.5t38 -38.5t16 -56zM683 198q-5 46 -43 81t-99 52t-131 10q-106 -11 -175.5 -67.5t-62.5 -125.5q4 -46 42 -81t99 -52t131 -10q106 11 175.5 67.5t63.5 125.5zM534 122q-21 -48 -75 -71t-107 -6q-51 16 -70 60t3 89q23 45 72.5 66.5
t100.5 9.5q52 -14 75 -57t1 -91zM407 115q10 17 5 33.5t-22 23.5q-16 7 -34.5 0.5t-28.5 -21.5q-10 -17 -6 -33t20.5 -24t35.5 -1.5t30 22.5zM451 173q4 6 2 12.5t-8 8.5q-7 3 -14 0.5t-10 -9.5q-8 -14 6 -21q7 -2 14 0.5t10 8.5zM880 571q42 -46 54 -106t-7 -115
q-4 -13 -16 -19t-24.5 -2t-19 16t-2.5 25q13 39 4.5 82t-37.5 75q-30 33 -71 45.5t-82 4.5q-13 -3 -24.5 4.5t-14.5 20.5t4.5 24.5t20.5 13.5q59 13 116.5 -5t98.5 -64zM746 524.5q28 -8.5 48 -31t26 -52t-3 -55.5q-4 -11 -14 -16.5t-21 -1.5q-11 3 -16.5 13.5t-1.5 21.5
q9 30 -12 53t-51 16q-11 -2 -21 4t-12 18q-2 11 4 21t17 12q29 6 57 -2.5z" />
    <glyph glyph-name="weixin" unicode="&#xe647;" 
d="M692 435q-13 2 -29 2q-71 0 -130 -32t-93 -87t-34 -120q0 -32 10 -63q-15 -1 -29 -1q-10 0 -20.5 0.5t-23 2.5t-18.5 3t-23 4l-20 5l-106 -53l30 91q-121 84 -121 204q0 70 41 129.5t110 93t151 34.5q74 0 139 -27.5t109 -76.5t57 -109zM316.5 454q10.5 10 10.5 27
t-10.5 27.5t-27.5 10.5q-18 0 -31.5 -10.5t-13.5 -27.5q0 -16 13.5 -26.5t31.5 -10.5q17 0 27.5 10zM939 202q0 -49 -28.5 -93.5t-77.5 -80.5l23 -75l-83 45q-63 -15 -91 -15q-70 0 -129.5 29t-93.5 79.5t-34 110t34 110t93.5 80t129.5 29.5q67 0 126 -29.5t95 -80
t36 -109.5zM528 454q10 10 10 27t-10 27.5t-27 10.5q-18 0 -32 -10.5t-14 -27.5q0 -16 14 -26.5t32 -10.5q17 0 27 10zM637 270q0 12 -11 21t-27 9q-12 0 -21 -9.5t-9 -20.5q0 -12 9 -21t21 -9q16 0 27 9t11 21zM803 270q0 12 -11 21t-27 9q-11 0 -20.5 -9.5t-9.5 -20.5
q0 -12 9.5 -21t20.5 -9q16 0 27 9t11 21z" />
    <glyph glyph-name="done1" unicode="&#xe649;" 
d="M512 811q-116 0 -214.5 -57t-155.5 -155.5t-57 -214.5t57 -214t155.5 -155.5t214.5 -57.5t214.5 57.5t155.5 155.5t57 214t-57.5 214.5t-155.5 155.5t-214 57z" />
    <glyph glyph-name="undone" unicode="&#xe64a;" 
d="M512 727q-116 0 -214.5 -57t-155.5 -155.5t-57 -214.5t57 -214t155.5 -155.5t214.5 -57.5t214.5 57.5t155.5 155.5t57 214t-57.5 214.5t-155.5 155.5t-214 57zM512 -41q-93 0 -171.5 45.5t-124 124t-45.5 171.5t45.5 171.5t124 124t171.5 45.5t171.5 -45.5t124 -124
t45.5 -171.5t-45.5 -171.5t-124 -124t-171.5 -45.5z" />
    <glyph glyph-name="whatshot" unicode="&#xe64b;" 
d="M576 783q32 -113 32 -204q0 -68 -40.5 -114t-105.5 -46q-66 0 -110.5 46.5t-44.5 113.5l1 15q-65 -79 -101 -176t-36 -203q0 -93 45.5 -171.5t124 -124.5t171.5 -46t171.5 46t124 124.5t45.5 171.5q0 168 -74.5 317t-202.5 251zM500 1q-57 0 -97.5 39.5t-40.5 94.5
q0 52 31.5 87t88.5 46q61 13 113.5 41t83.5 69q25 -84 25 -172q0 -85 -60 -145t-144 -60z" />
    <glyph glyph-name="people" unicode="&#xe64d;" 
d="M683 343q53 0 90 37.5t37 90.5t-37 90.5t-90 37.5t-90.5 -37.5t-37.5 -90.5t37.5 -90.5t90.5 -37.5zM341 343q53 0 90.5 37.5t37.5 90.5t-37.5 90.5t-90.5 37.5t-90.5 -37.5t-37.5 -90.5t37.5 -90.5t90.5 -37.5zM341.5 257q-39.5 0 -89 -9.5t-97.5 -27t-80 -47.5t-32 -65
v-107h597v107q0 35 -32.5 65t-80 47.5t-97 27t-89 9.5zM683 257q-18 0 -42 -2q84 -60 84 -147v-107h256v107q0 35 -32 65t-80 47.5t-97.5 27t-88.5 9.5z" />
    <glyph glyph-name="school" unicode="&#xe64c;" 
d="M213 250v-171l299 -163l299 163v171l-299 -163zM512 684l-469 -256l469 -256l384 210v-295h85v341z" />
    <glyph glyph-name="groupadd" unicode="&#xe64e;" 
d="M341 385h-128v128h-85v-128h-128v-85h128v-128h85v128h128v85zM768 343q53 0 90.5 37.5t37.5 90.5t-37.5 90.5t-90.5 37.5q-20 0 -39 -7q39 -55 39 -121.5t-39 -121.5q19 -6 39 -6zM555 343q53 0 90 37.5t37 90.5t-37 90.5t-90 37.5t-90.5 -37.5t-37.5 -90.5t37.5 -90.5
t90.5 -37.5zM837 251q59 -52 59 -122v-85h128v85q0 31 -30 57t-70 41t-87 24zM555 257q-34 0 -76.5 -8t-83.5 -23t-68.5 -40.5t-27.5 -56.5v-85h512v85q0 31 -28 56.5t-69 40.5t-83 23t-76 8z" />
    <glyph glyph-name="recentactors" unicode="&#xe64f;" 
d="M896 599v-598h85v598h-85zM725 1h86v598h-86v-598zM597 599h-512q-17 0 -29.5 -12.5t-12.5 -30.5v-512q0 -18 12.5 -30.5t29.5 -12.5h512q18 0 30.5 12.5t12.5 30.5v512q0 18 -12.5 30.5t-30.5 12.5zM341.5 481q39.5 0 67.5 -28t28 -67.5t-28 -68t-67.5 -28.5t-68 28.5
t-28.5 68t28.5 67.5t68 28zM533 87h-384v32q0 29 35.5 52.5t78.5 33.5t78.5 10t78 -10t78 -33.5t35.5 -52.5v-32z" />
    <glyph glyph-name="doneall" unicode="&#xe650;" 
d="M768 513l-60 61l-271 -271l60 -60zM949 574l-452 -452l-178 178l-60 -60l238 -239l512 512zM18 240l238 -239l60 61l-238 238z" />
    <glyph glyph-name="findinpage" unicode="&#xe651;" 
d="M853 -24v495l-256 256h-341q-35 0 -60 -25t-25 -61v-682q0 -36 24.5 -61t60.5 -25h512q28 0 51 17l-190 190q-53 -36 -117 -36q-88 0 -150.5 62.5t-62.5 151t62.5 151t150.5 62.5t150.5 -62.5t62.5 -151.5q0 -63 -35 -117zM384 257q0 -53 37.5 -90.5t90.5 -37.5
t90.5 37.5t37.5 90.5t-37.5 90.5t-90.5 37.5t-90.5 -37.5t-37.5 -90.5z" />
    <glyph glyph-name="headset" unicode="&#xe652;" 
d="M512 769q-104 0 -192.5 -51t-140 -139.5t-51.5 -193.5v-298q0 -53 37.5 -90.5t90.5 -37.5h128v341h-171v85q0 124 87.5 211.5t211.5 87.5t211.5 -87.5t87.5 -211.5v-85h-171v-341h171v-43h-299v-85h256q53 0 90.5 37.5t37.5 90.5v426q0 105 -51.5 193.5t-140 139.5
t-192.5 51z" />
    <glyph glyph-name="landscape" unicode="&#xe653;" 
d="M597 556l-160 -213l122 -162l-68 -52l-192 256l-256 -341h938z" />
    <glyph glyph-name="assignment1" unicode="&#xe654;" 
d="M811 684h-179q-13 38 -46 61.5t-74 23.5t-74 -23.5t-46 -61.5h-179q-35 0 -60 -25t-25 -60v-598q0 -35 25 -60t60 -25h598q35 0 60 25t25 60v598q0 35 -25 60t-60 25zM512 684q18 0 30.5 -12.5t12.5 -30t-12.5 -30t-30.5 -12.5t-30.5 12.5t-12.5 30t12.5 30t30.5 12.5z
M427 87l-171 170l60 61l111 -111l281 281l60 -60z" />
    <glyph glyph-name="accountwallet" unicode="&#xe655;" 
d="M896 44v-43q0 -35 -25 -60t-60 -25h-598q-35 0 -60 25t-25 60v598q0 35 25 60t60 25h598q35 0 60 -25t25 -60v-43h-384q-35 0 -60 -25t-25 -60v-342q0 -35 25 -60t60 -25h384v0zM512 129h427v342h-427v-342zM682.5 236q-26.5 0 -45 18.5t-18.5 45.5t18.5 45.5t45 18.5
t45.5 -18.5t19 -45.5t-19 -45.5t-45.5 -18.5z" />
    <glyph glyph-name="dashboard" unicode="&#xe656;" 
d="M128 262h341v427h-341v-427zM128 -79h341v256h-341v-256zM555 -79h341v426h-341v-426zM555 689v-256h341v256h-341z" />
    <glyph glyph-name="web" unicode="&#xe67c;" 
d="M853 641h-682q-36 0 -61 -25t-25 -60v-512q0 -35 25 -60t61 -25h682q36 0 61 25t25 60v512q0 35 -25 60t-61 25zM640 44h-469v171h469v-171zM640 257h-469v171h469v-171zM853 44h-170v384h170v-384z" />
    <glyph glyph-name="check" unicode="&#xe60c;" 
d="M597 727h-341q-35 0 -60 -25t-25 -61v-682q0 -36 24.5 -61t60.5 -25h512q35 0 60 25t25 61v512zM452 -2v0v0l-121 121l60 60l61 -60l181 181l60 -60zM555 428v235l234 -235h-234z" />
    <glyph glyph-name="doing" unicode="&#xe648;" 
d="M527.5 743q-115.5 0 -214 -57t-155.5 -155t-57 -214t57 -214.5t155.5 -155.5t214 -57t214 57t155.5 155.5t57 214.5t-57 214t-155.5 155t-214 57zM868 317q0 -85 -39 -160l-301 159v341q92 0 170.5 -45.5t124 -124t45.5 -170.5z" />
    <glyph glyph-name="diqiu" unicode="&#xe6c5;" 
d="M962 384q0 91 -35.5 174.5t-96 143.5t-143.5 95.5t-174.5 35.5t-174.5 -35.5t-143.5 -95.5t-96 -143.5t-35.5 -174.5q0 -113 52 -210.5t142 -159.5t200 -76q19 -4 45 -4q8 0 15 1q91 1 173.5 37t142 96t94.5 142.5t35 173.5zM898 378q-2 33 -9 65q1 12 0 22q9 -40 9 -81
v-6zM127 384q0 40 8 79q13 -14 36 -12t30 22q4 -3 16.5 -8t18 -10.5t5.5 -14.5q0 -25 0.5 -41t4 -36.5t10 -32.5t19 -21t29.5 -9q3 0 10.5 -4.5t20 -17.5t19.5 -31q2 -6 9 -6t19.5 3t20.5 3q6 0 6 -5.5t-3 -22.5t-3 -33q0 -19 23 -45.5t45 -43.5l23 -17q-1 -40 3 -68
q-29 0 -51 -7q-137 24 -228 131t-91 248zM607 11q-3 17 -26 11q8 35 11.5 48.5t12 30.5t21.5 28q18 18 17 33t-14 25t-28 8q-7 -1 -11 3t-4 10t-3.5 11.5t-10.5 5.5q-10 1 -36.5 26t-40.5 31l-20 14t-35 14q-6 1 -14 -1t-14 -4t-12 -3t-9.5 0t-3.5 5q0 15 -6 94v5q-1 1 1 1
q8 -3 21 -3q8 0 12 16t12 17q6 1 31 -5.5t30 -2.5q2 1 7 -7q3 -5 11 -18q25 -46 35 -46q11 -1 11 46q0 4 -1.5 15.5t-1.5 21t3 15.5q7 14 16.5 30.5t15.5 27.5t12 21t8 16t1.5 8t-8.5 3t-20.5 0t-23.5 -4q-3 -1 -2.5 -8.5t-5.5 -8.5q-21 -4 -38 -1t-25 12.5t-2 18.5
q5 8 21 12t29 11.5t14 25.5q3 28 6 68q31 -4 36 20q5 27 -26 47q-18 11 -43 14q124 -2 222 -74t138 -185q-4 4 -10 4q-15 38 -42 29q-24 -9 -26 -39q-1 -14 4 -27q-129 -100 -46 -177q23 -22 49 -64q-7 -21 11 -20q25 1 52 37q8 11 14 24q-29 -98 -102.5 -169.5
t-173.5 -96.5z" />
    <glyph glyph-name="icattachfileblack24px" unicode="&#xe681;" 
d="M704 556v-491q0 -70 -50 -120t-120.5 -50t-120.5 50t-50 120v534q0 44 31 75t75 31t75.5 -31t31.5 -75v-448q0 -18 -12.5 -30.5t-30 -12.5t-30 12.5t-12.5 30.5v405h-64v-405q0 -44 31 -75.5t75 -31.5t75.5 31.5t31.5 75.5v448q0 70 -50 120t-120.5 50t-120.5 -50
t-50 -120v-534q0 -97 68.5 -165.5t166 -68.5t166 68.5t68.5 165.5v491h-64z" />
    <glyph glyph-name="morehoriz" unicode="&#xe665;" 
d="M48 305q0 -53 37 -90.5t90 -37.5t90.5 37.5t37.5 90.5v0q0 53 -37.5 90.5t-90.5 37.5t-90 -37.5t-37 -90.5v0zM383 305v0q0 -53 37.5 -90.5t90.5 -37.5t90.5 37.5t37.5 90.5v0v0q0 53 -37.5 90.5t-90.5 37.5t-90.5 -37.5t-37.5 -90.5v0zM721 305v0q0 -53 37.5 -90.5
t90.5 -37.5t90.5 37.5t37.5 90.5v0v0q0 53 -37.5 90.5t-90.5 37.5t-90.5 -37.5t-37.5 -90.5v0z" />
    <glyph glyph-name="introduction1" unicode="&#xe673;" 
d="M640 331v256l-128 128l-128 -128v-86h-256v-597h768v427h-256zM299 -11h-86v86h86v-86zM299 160h-86v85h86v-85zM299 331h-86v85h86v-85zM555 -11h-86v86h86v-86zM555 160h-86v85h86v-85zM555 331h-86v85h86v-85zM555 501h-86v86h86v-86zM811 -11h-86v86h86v-86zM811 160
h-86v85h86v-85z" />
    <glyph glyph-name="introduction2" unicode="&#xe674;" 
d="M171 544h768v85h-768q-36 0 -61 -25t-25 -60v-469h-85v-128h597v128h-426v469zM981 459h-256q-17 0 -29.5 -12.5t-12.5 -30.5v-427q0 -17 12.5 -29.5t29.5 -12.5h256q18 0 30.5 12.5t12.5 29.5v427q0 18 -12.5 30.5t-30.5 12.5zM939 75h-171v298h171v-298z" />
    <glyph glyph-name="introduction3" unicode="&#xe675;" 
d="M826 372q-22 111 -110 184t-204 73q-91 0 -167 -47t-117 -125q-96 -10 -162 -83t-66 -171q0 -106 75 -181t181 -75h555q88 0 150.5 62.5t62.5 150.5q0 84 -57.5 145t-140.5 67zM427 75l-150 149l60 60l90 -89l221 221l60 -60z" />
    <glyph glyph-name="videoplay" unicode="&#xe677;" 
d="M341 587v-598l470 299z" />
    <glyph glyph-name="chatcircle" unicode="&#xe682;" 
d="M512 727q-116 0 -214 -57.5t-155.5 -155.5t-57.5 -214t57.5 -214t155.5 -155.5t214 -57.5t214 57.5t155.5 155.5t57.5 214t-57.5 214t-155.5 155.5t-214 57.5zM747 195q0 -20 -14 -33.5t-33 -13.5h-329l-94 -94v423q0 19 14 33t33 14h376q19 0 33 -14t14 -33v-282z" />
    <glyph glyph-name="locationcircle" unicode="&#xe683;" 
d="M512 451q-28 0 -48.5 -20t-20.5 -48.5t20.5 -48.5t48.5 -20t48.5 20t20.5 48.5t-20.5 48.5t-48.5 20zM512 727q-116 0 -214 -57.5t-155.5 -155.5t-57.5 -214t57.5 -214t155.5 -155.5t214 -57.5t214 57.5t155.5 155.5t57.5 214t-57.5 214t-155.5 155.5t-214 57.5zM512 25
q-8 9 -21 24t-46 59.5t-58.5 86t-46.5 94.5t-21 94q0 79 56.5 135.5t136.5 56.5t136.5 -56.5t56.5 -135.5q0 -41 -20 -92.5t-48.5 -96.5t-56.5 -84.5t-48 -61.5z" />
    <glyph glyph-name="warning" unicode="&#xe685;" 
d="M43 -96h938l-469 811l-469 -811v0zM555 32h-86v85h86v-85zM555 203h-86v170h86v-170z" />
    <glyph glyph-name="eventnote" unicode="&#xe686;" 
d="M598 214v-84h-300v84h300zM810 2v468h-596v-468h596zM810 684q34 0 60 -26t26 -60v-596q0 -34 -26 -60t-60 -26h-596q-36 0 -61 26t-25 60v596q0 34 25 60t61 26h42v86h86v-86h340v86h86v-86h42zM726 386v-86h-428v86h428z" />
    <glyph glyph-name="localplay" unicode="&#xe684;" 
d="M664 96l-46 174l140 116l-180 10l-66 168l-66 -168l-182 -10l142 -116l-46 -174l152 98zM854 300q0 -34 25 -60t59 -26v-170q0 -34 -25 -60t-59 -26h-684q-34 0 -59 26t-25 60v170q36 0 60 25t24 61q0 34 -25 60t-59 26v170q0 34 25 60t59 26h684q34 0 59 -26t25 -60
v-170q-34 0 -59 -26t-25 -60v0z" />
    <glyph glyph-name="money" unicode="&#xe688;" 
d="M853 629h-682q-36 0 -60.5 -24.5t-24.5 -60.5l-1 -512q0 -36 25 -60.5t61 -24.5h682q36 0 61 24.5t25 60.5v512q0 36 -25 60.5t-61 24.5zM853 32h-682v512h682v-512zM656 497l-103 -191h82v-42h-97v-58h97v-43h-97v-84h-52v84h-100v43h100v58h-100v42h84l-102 191h60
l71 -149q6 -12 14 -31h1q5 15 14 33l72 147h56z" />
    <glyph glyph-name="writefill" unicode="&#xe760;" 
d="M918 581l-246 242q-9 9 -23 9q-13 0 -23 -9l-459 -471q-7 -6 -9 -16l-61 -331q-4 -17 9 -29q9 -9 22 -9q4 0 7 1l292 65q10 2 16 9l476 494q9 10 9 23t-10 22zM428 93q-9 -10 -23 -10q-13 0 -22 9l-182 171q-10 9 -10 22.5t9 23t22 10t23 -8.5l182 -172q10 -9 10 -22
t-9 -23z" />
    <glyph glyph-name="write" unicode="&#xe761;" 
d="M920 581l-247 242q-9 9 -23 9q-13 0 -22 -9l-459 -471q-7 -7 -9 -16l-62 -331q-3 -17 9 -29q9 -9 22 -9q4 0 7 1l293 65q9 2 16 9l476 494q9 10 8.5 23t-9.5 22zM434 123l-123 121q-9 10 -22.5 10t-22.5 -9.5t-9 -23t9 -22.5l113 -111l-209 -47l51 273l430 441l201 -197z
" />
    <glyph glyph-name="lock1" unicode="&#xe689;" 
d="M768 459h-43v85q0 88 -62.5 150.5t-150.5 62.5t-150.5 -62.5t-62.5 -150.5v-85h-43q-35 0 -60 -25t-25 -61v-426q0 -36 25 -61t60 -25h512q35 0 60 25t25 61v426q0 36 -25 61t-60 25zM512 75q-35 0 -60 25t-25 60t25 60t60 25t60 -25t25 -60t-25 -60t-60 -25zM644 459
h-264v85q0 55 38.5 93.5t93.5 38.5t93.5 -38.5t38.5 -93.5v-85z" />
    <glyph glyph-name="iccheckcircleblack24px" unicode="&#xe68b;" 
d="M512 727q-116 0 -214 -57.5t-155.5 -155.5t-57.5 -214t57.5 -214t155.5 -155.5t214 -57.5t214 57.5t155.5 155.5t57.5 214t-57.5 214t-155.5 155.5t-214 57.5zM427 87l-214 213l60 60l154 -153l324 324l60 -60z" />
    <glyph glyph-name="viewcomfy" unicode="&#xe68c;" 
d="M128 428h171v171h-171v-171zM128 215h171v170h-171v-170zM341 215h171v170h-171v-170zM555 215h170v170h-170v-170zM341 428h171v171h-171v-171zM555 599v-171h170v171h-170zM768 215h171v170h-171v-170zM128 1h171v171h-171v-171zM341 1h171v171h-171v-171zM555 1h170
v171h-170v-171zM768 1h171v171h-171v-171zM768 599v-171h171v171h-171z" />
    <glyph glyph-name="loading" unicode="&#xe68d;" 
d="M890 292q-12 77 -52 143t-103 111q-2 2 -6 5q-76 52 -166.5 64t-177 -19t-150.5 -100t-88 -158t-5.5 -178t76.5 -160q14 -17 35 -18t36 15q13 13 13.5 31t-10.5 31q-37 46 -52.5 102t-8.5 113q1 3 1 5q15 104 95 173.5t187 69.5t186.5 -70t94.5 -174q3 -17 16.5 -29
t30.5 -12q22 0 36.5 16.5t11.5 38.5z" />
    <glyph glyph-name="calendarok" unicode="&#xe6a5;" 
d="M737 637q17 0 29.5 12.5t12.5 29.5v113q0 17 -12.5 29.5t-29.5 12.5t-29.5 -12.5t-12.5 -29.5v-113q0 -17 12.5 -29.5t29.5 -12.5zM920 722h-85v-43q0 -40 -28.5 -69t-69.5 -29t-69.5 29t-28.5 69v43h-254v-43q0 -40 -28.5 -69t-69.5 -29t-69.5 29t-28.5 69v43h-85
q-17 0 -29.5 -12.5t-12.5 -30.5v-703q0 -17 12.5 -29.5t29.5 -12.5h816q17 0 29.5 12.5t12.5 29.5v703q0 18 -12.5 30.5t-29.5 12.5zM878 18h-732v478h732v-478zM287 637q17 0 29.5 12.5t12.5 29.5v113q0 17 -12.5 29.5t-29.5 12.5t-29.5 -12.5t-12.5 -29.5v-113
q0 -17 12.5 -29.5t29.5 -12.5zM440 129q12 -12 29.5 -12t30.5 12l197 197q12 12 12 29.5t-12.5 30t-30 12.5t-29.5 -12l-167 -167l-69 68q-12 13 -29.5 13t-30 -12.5t-12.5 -30t13 -29.5z" />
    <glyph glyph-name="self" unicode="&#xe6c4;" 
d="M512 748q-91 0 -174 -35.5t-143 -95.5t-95.5 -143t-35.5 -174.5t35.5 -174.5t95.5 -143t143 -95.5t174 -35.5t174 35.5t143 95.5t95.5 143t35.5 174.5t-35.5 174.5t-95.5 143t-143 95.5t-174 35.5zM511.5 -104q-109.5 0 -202.5 54t-147 147t-54 202.5t54 202.5t147 147
t202.5 54t202.5 -54t147 -147t54 -202.5t-54 -202.5t-147 -147t-202.5 -54zM585 246q-4 1 -7.5 4.5t-7.5 15.5t3 31v0q27 27 44 67t17 81q0 62 -36 96.5t-88.5 34.5t-88 -34.5t-35.5 -96.5q0 -41 17 -81t44 -68q8 -16 3 -28t-9.5 -16t-9.5 -6q-60 -22 -105.5 -53.5
t-45.5 -63.5v-17q0 -75 230 -75t230 75v17q0 33 -46.5 64.5t-108.5 52.5v0v0zM585 246z" />
    <glyph glyph-name="trophy" unicode="&#xe691;" 
d="M680 12q-3 11 -12.5 18.5t-21.5 7.5h-76v126q-29 -4 -58 -4t-59 4v-126h-75q-12 0 -21.5 -7.5t-12.5 -18.5l-27 -95q-4 -17 6.5 -31t28.5 -14h320h1q14 0 24.5 10.5t10.5 24.5q0 7 -3 14l-25 91v0v0zM872 766q-15 4 -30 4q-6 0 -13 -1v94q0 14 -10 23.5t-24 9.5h-566
q-14 0 -24 -9.5t-10 -23.5v-94q-7 1 -13 1q-16 0 -30 -4q-58 -15 -85.5 -79t-7.5 -138q18 -65 63 -106t97 -41q3 0 10 1l8 -16q1 -2 2 -3q6 -11 13 -22q0 -1 0.5 -1.5l1.5 -1.5q8 -12 15 -21q0 -1 1 -1q16 -21 37 -40v0v-1q10 -8 21 -17h1q45 -34 97 -50v0q14 -4 27 -7v0
q15 -3 29 -5h0.5h0.5q15 -1 29 -1t29 1h0.5h0.5q14 2 28 5v0h1q13 2 26 7h1q52 16 97 50h0.5h0.5q10 8 20 17l1 1q20 19 37 40l1 1q8 10 15 21l1.5 1.5t0.5 1.5q7 10 13 22q1 1 2 3q4 9 8 16q7 -1 10 -1q52 0 97 41t63 106q20 74 -7.5 138t-85.5 79v0v0zM114 563
q-14 51 1.5 95t50.5 54q8 2 16 2q6 0 13 -2v-156q0 -13 1 -28q1 -3 1 -4q1 -12 3 -26q0 -4 1 -5q2 -14 5 -25q1 -2 1 -4q0 -1 1 -3v-2q-30 5 -56.5 34t-37.5 70v0v0zM685 627l-94 -70l34 -111q3 -7 -4 -11q-2 -2 -5.5 -2t-6.5 2l-97 66l-97 -66q-6 -5 -12.5 -0.5t-3.5 11.5
l34 111l-94 70q-6 5 -4 12t10 7l118 3l39 109q2 7 10 7t10 -7l39 -109l118 -3q8 0 10 -7t-4 -12v0v0zM910 563q-11 -41 -37.5 -70t-56.5 -34q0 1 1 5l1 3q3 13 5 26q1 2 1 4q2 14 3 27q0 1 1 4q1 15 1 28v156q7 2 13 2q8 0 16 -2q35 -10 50.5 -54t1.5 -95v0v0zM910 563z" />
    <glyph glyph-name="iconfontjigou" unicode="&#xe6d8;" 
d="M753 -118h-125h-63h-125h-63h-125h-251v32v31v752h251v189h501v-189h251v-752v-31v-32h-251v0zM252 635h-188v-690h188v690v0zM440 -55h125v126h-125v-126v0zM691 697v126h-376v-126v-752h62v126v62h63h125h63v-62v-126h63v752v0zM942 635h-189v-690h189v690v0zM879 447
h-63v62h63v-62v0zM879 259h-63v62h63v-62v0zM879 71h-63v62h63v-62v0zM377 321h251v-62h-251v62v0zM377 509h251v-62h-251v62v0zM377 697h251v-62h-251v62v0zM189 447h-62v62h62v-62v0zM189 259h-62v62h62v-62v0zM189 71h-62v62h62v-62v0z" />
    <glyph glyph-name="arrowdropleft" unicode="&#xe68f;" 
d="M405 619v-427l214 213z" />
    <glyph glyph-name="hd" unicode="&#xe6bb;" 
d="M618 320v128h86v-128h-86zM554 512v-256h172q18 0 30 12t12 30v172q0 18 -12 30t-30 12h-172v0zM470 256v256h-64v-106h-86v106h-64v-256h64v86h86v-86h64zM810 768q34 0 60 -26t26 -60v-596q0 -34 -26 -60t-60 -26h-596q-36 0 -61 26t-25 60v596q0 34 25 60t61 26h596z
" />
    <glyph glyph-name="activity" unicode="&#xe692;" 
d="M719 256q-68 0 -133 35q-72 29 -126 29q-57 0 -128 -30q-15 -6 -29.5 3.5t-14.5 26.5v416q0 22 20 30q84 34 155 34t150 -35q2 0 3 -2q48 -27 101 -27q23 0 48.5 7.5t35.5 12.5l14 7q16 10 32.5 1t16.5 -28v-416q0 -17 -15 -27q-6 -4 -18.5 -10.5t-46 -16.5t-65.5 -10z
M460 384q69 0 152 -34l4 -2q5 -3 15.5 -8t37 -12.5t50.5 -7.5q40 0 81 19v348q-43 -15 -83 -15q-69 0 -131 35q-68 29 -123 29q-45 0 -111 -22v-349q62 19 108 19zM544 -32h-352v800q0 13 9.5 22.5t22.5 9.5t22.5 -9.5t9.5 -22.5v-736h288q13 0 22.5 -9.5t9.5 -22.5
t-9.5 -22.5t-22.5 -9.5zM224 -32h-63q-13 0 -22.5 9.5t-9.5 22.5t9.5 22.5t22.5 9.5h63q13 0 22.5 -9.5t9.5 -22.5t-9.5 -22.5t-22.5 -9.5z" />
    <glyph glyph-name="column" unicode="&#xe693;" 
d="M865 643q-34 0 -58 -24t-24 -57v-410h-68v273q0 34 -24 57.5t-59 23.5q-34 0 -58.5 -24t-24.5 -57v-275h-83v358q0 34 -24 57.5t-59 23.5q-34 0 -58.5 -24t-24.5 -57v-356h-67v218q0 35 -24.5 58t-58.5 23t-58.5 -24t-24.5 -57v-272h873v464q6 33 -17 57t-58 24v0z
M185 152h-55v218q0 11 8 19t18 8q11 0 19 -8t8 -19v-218h2zM416 152h-55v354q0 11 8.5 19.5t18.5 8.5q11 0 18.5 -8.5t7.5 -19.5v-354h2zM663 152h-55v273q0 11 8 18.5t18 7.5q11 0 18.5 -8t7.5 -18v-273h3zM894 152h-55v408q0 11 8 20t18 9q12 0 19.5 -8.5t7.5 -20.5v-408
h2z" />
    <glyph glyph-name="answer" unicode="&#xe694;" 
d="M960 448q0 104 -60 192.5t-163.5 140t-224.5 51.5t-224.5 -51.5t-163.5 -140t-60 -192.5q0 -87 45 -166t128 -135q11 -7 24 -4.5t20.5 13.5t5 24t-13.5 20q-69 47 -107 112t-38 136q0 87 51.5 160.5t140 116.5t192.5 43t192.5 -43t140 -116.5t51.5 -160.5t-51.5 -160.5
t-140 -116.5t-192.5 -43q-1 0 -3 -0.5t-3 -0.5q-11 2 -21 -3.5t-14 -16.5q-9 -26 -94 -74q17 58 3 79q-11 16 -30 16q-13 0 -22.5 -9.5t-9.5 -22.5q0 -9 4 -16q-5 -33 -33 -100q-8 -20 8 -35q9 -9 22 -9q7 0 13 3q144 64 188 125q119 2 220.5 53.5t160.5 139.5t59 191z
M726.5 622.5q-9.5 9.5 -22.5 9.5t-23 -10l-136 -136q-31 19 -67 19q-53 0 -90.5 -37.5t-37.5 -90.5t37.5 -90.5t90.5 -37.5t90.5 37.5t37.5 90.5q0 33 -17 63l53 52l39 -40q10 -9 23 -9t22.5 9.5t9.5 22.5t-9 22l-40 40l40 40q9 9 9 22.5t-9.5 23zM523 332q-18 -18 -45 -18
t-45 18q-19 19 -19 45.5t19 45t45.5 18.5t45 -18.5t18.5 -45t-19 -45.5z" />
    <glyph glyph-name="comment1" unicode="&#xe695;" 
d="M512 -32q-13 0 -23 9l-96 96q-9 10 -9 23t9.5 22.5t22.5 9.5t23 -9l73 -74l73 74q10 9 23 9h224q13 0 22.5 9.5t9.5 22.5v512q0 13 -9.5 22.5t-22.5 9.5h-640q-13 0 -22.5 -9.5t-9.5 -22.5v-512q0 -13 9.5 -22.5t22.5 -9.5h96q13 0 22.5 -9.5t9.5 -22.5t-9.5 -22.5
t-22.5 -9.5h-96q-40 0 -68 28t-28 68v512q0 40 28 68t68 28h640q40 0 68 -28t28 -68v-512q0 -40 -28 -68t-68 -28h-211l-86 -87q-10 -9 -23 -9zM336 384q-20 0 -34 14t-14 34t14 34t34 14t34 -14t14 -34t-14 -34t-34 -14zM528 384q-20 0 -34 14t-14 34t14 34t34 14t34 -14
t14 -34t-14 -34t-34 -14zM720 384q-20 0 -34 14t-14 34t14 34t34 14t34 -14t14 -34t-14 -34t-34 -14z" />
    <glyph glyph-name="exam" unicode="&#xe696;" 
d="M800 -64h-576q-40 0 -68 28t-28 68v640q0 40 28 68t68 28h448q13 0 22.5 -9.5t9.5 -22.5t-9.5 -22.5t-22.5 -9.5h-448q-13 0 -22.5 -9.5t-9.5 -22.5v-640q0 -13 9.5 -22.5t22.5 -9.5h576q13 0 22.5 9.5t9.5 22.5v512q0 13 9.5 22.5t22.5 9.5t22.5 -9.5t9.5 -22.5v-512
q0 -40 -28 -68t-68 -28zM612 448q-13 0 -22.5 9.5t-9.5 22.5t9 23l318 318q10 9 23 9t22.5 -9.5t9.5 -22.5t-9 -23l-318 -318q-10 -9 -23 -9zM480 448h-192q-13 0 -22.5 9.5t-9.5 22.5t9.5 22.5t22.5 9.5h192q13 0 22.5 -9.5t9.5 -22.5t-9.5 -22.5t-22.5 -9.5zM672 256h-384
q-13 0 -22.5 9.5t-9.5 22.5t9.5 22.5t22.5 9.5h384q13 0 22.5 -9.5t9.5 -22.5t-9.5 -22.5t-22.5 -9.5z" />
    <glyph glyph-name="topic" unicode="&#xe697;" 
d="M512 -32q-16 0 -26 13l-65 91q-156 28 -256.5 133.5t-100.5 242.5q0 104 60 192.5t163.5 140t224.5 51.5q185 0 316.5 -112.5t131.5 -271.5q0 -137 -100.5 -242.5t-256.5 -133.5l-65 -91q-10 -13 -26 -13zM512 768q-159 0 -271.5 -94t-112.5 -226q0 -116 89.5 -205
t226.5 -110q13 -2 21 -13l47 -65l47 65q7 11 21 13q137 21 226.5 110t89.5 205q0 87 -51.5 160.5t-140 116.5t-192.5 43zM288.5 384q-26.5 0 -45.5 19t-19 45t19 45t45.5 19t45 -19t18.5 -45t-18.5 -45t-45 -19zM288 448v0v-32v32zM736.5 384q-26.5 0 -45.5 19t-19 45t19 45
t45.5 19t45 -19t18.5 -45t-18.5 -45t-45 -19zM736 448v0v-32v32zM512.5 384q-26.5 0 -45.5 19t-19 45t19 45t45.5 19t45 -19t18.5 -45t-18.5 -45t-45 -19zM512 448v0v-32v32z" />
    <glyph glyph-name="target" unicode="&#xe698;" 
d="M869 542q-30 73 -86.5 129t-129.5 87q-75 32 -158 32t-158 -32q-73 -31 -129.5 -87t-86.5 -129q-32 -76 -32 -158.5t32 -158.5q30 -73 86.5 -129t129.5 -87q75 -32 158 -32t158 32q73 31 129.5 87t86.5 129q32 76 32 158.5t-32 158.5zM468 28q-132 10 -225 103
q-96 96 -104 231h112q9 -85 69 -145q61 -61 148 -69v-120zM468 198q-65 8 -111.5 54t-55.5 110h167v-164zM468 412h-167q8 65 54.5 112t112.5 55v-167zM468 629q-86 -8 -148 -70q-61 -61 -70 -148h-110q10 131 103 224q94 94 225 104v-110zM518 739q133 -8 229 -104
q93 -93 103 -223h-118q-9 85 -70 147q-61 61 -144 70v110zM518 578q64 -9 109.5 -55.5t53.5 -111.5h-163v167zM518 362h163q-9 -64 -54.5 -109t-108.5 -54v163zM747 131q-95 -95 -229 -103v120q84 9 144 69q60 61 69 145h120q-8 -135 -104 -231z" />
    <glyph glyph-name="homework" unicode="&#xe699;" 
d="M920 581l-247 242q-9 9 -23 9q-13 0 -22 -9l-459 -471q-7 -7 -9 -16l-62 -331q-3 -17 9 -29q9 -9 22 -9q4 0 7 1l293 65q9 2 16 9l476 494q9 10 8.5 23t-9.5 22zM434 123l-123 121q-9 10 -22.5 10t-22.5 -9.5t-9 -23t9 -22.5l113 -111l-209 -47l51 273l430 441l201 -197z
" />
    <glyph glyph-name="speed" unicode="&#xe69a;" horiz-adv-x="1108" 
d="M785 -34q-7 -4 -15 -4q-16 0 -24 14q-6 10 -3.5 21t12.5 18q75 45 123 116l-29 17q-10 6 -13 17t3 21.5t17.5 13.5t21.5 -3l28 -16q33 68 38 143h-31q-12 0 -20.5 8t-8.5 20t8.5 20.5t20.5 8.5h31q-5 75 -40 145l-26 -15q-7 -4 -14 -4q-17 0 -25 14q-6 10 -3 21.5
t14 17.5l26 15q-43 62 -106 105l-15 -26q-8 -14 -25 -14q-8 0 -14 4q-10 6 -13.5 17t2.5 22l16 26q-70 34 -147 39v-35q0 -12 -8.5 -20.5t-20 -8.5t-20 8.5t-8.5 20.5v35q-75 -6 -143 -38l15 -28q6 -10 3 -21t-13 -17q-7 -4 -14 -4q-17 0 -25 14l-16 27q-62 -41 -106 -105
l27 -16q11 -6 14 -17.5t-3 -21.5q-8 -14 -25 -14q-8 0 -14 4l-28 16q-35 -70 -40 -146h31q12 0 20.5 -8t8.5 -20t-8.5 -20t-20.5 -8h-32q6 -76 39 -145l30 17q10 6 21.5 3t17.5 -13.5t3 -21.5t-14 -17l-30 -18q47 -69 119 -114q10 -6 13 -17.5t-3.5 -21.5t-18 -12.5
t-21.5 3.5q-100 63 -157 165t-57 220q0 92 36 175.5t97.5 144.5t146 97t177 36t177 -36t145.5 -97t97 -144.5t36 -175.5q0 -119 -57.5 -221.5t-159.5 -165.5v0zM545 409q15 0 28 -8l155 89q11 6 22 3t17 -13t3 -21.5t-13 -17.5l-155 -89v0q0 -23 -16.5 -39.5t-40 -16.5
t-40.5 16.5t-17 40t17 40t40 16.5z" />
    <glyph glyph-name="lesson" unicode="&#xe69b;" 
d="M662 84h-420q-37 0 -63.5 26.5t-26.5 63.5v540q0 37 26.5 63.5t63.5 26.5h420q37 0 63.5 -26.5t26.5 -63.5v-540q0 -37 -26.5 -63.5t-63.5 -26.5zM242 744q-12 0 -21 -9t-9 -21v-540q0 -12 9 -21t21 -9h420q12 0 21 9t9 21v540q0 12 -9 21t-21 9h-420zM782 -36h-450
q-12 0 -21 9t-9 21t9 21t21 9h450q12 0 21 9t9 21v570q0 12 9 21t21 9t21 -9t9 -21v-570q0 -37 -26.5 -63.5t-63.5 -26.5zM542 564h-240q-12 0 -21 9t-9 21t9 21t21 9h240q12 0 21 -9t9 -21t-9 -21t-21 -9zM602 414h-300q-12 0 -21 9t-9 21t9 21t21 9h300q12 0 21 -9t9 -21
t-9 -21t-21 -9zM602 264h-300q-12 0 -21 9t-9 21t9 21t21 9h300q12 0 21 -9t9 -21t-9 -21t-21 -9z" />
    <glyph glyph-name="addcircle1" unicode="&#xe69c;" 
d="M512 811q-116 0 -214 -57.5t-155.5 -155.5t-57.5 -214t57.5 -214t155.5 -155.5t214 -57.5t214 57.5t155.5 155.5t57.5 214t-57.5 214t-155.5 155.5t-214 57.5zM512 43q-93 0 -171.5 45.5t-124 124t-45.5 171.5t45.5 171.5t124 124t171.5 45.5t171.5 -45.5t124 -124
t45.5 -171.5t-45.5 -171.5t-124 -124t-171.5 -45.5zM555 597h-86v-170h-170v-86h170v-170h86v170h170v86h-170v170z" />
    <glyph glyph-name="friends" unicode="&#xe69f;" 
d="M519 242v7q22 15 38 34.5t25 43.5t15 44t8 49.5t2.5 46.5t0.5 47v14q0 98 -56 153.5t-155 55.5h-6q-95 0 -146 -54t-51 -155q0 -30 1 -49t6.5 -56.5t15.5 -64.5t31 -57.5t50 -51.5v-6q-63 -9 -114 -27t-85 -49t-34 -68q0 -162 329 -162q82 0 144.5 10t99.5 25.5t60 37.5
t31 43t8 46q0 29 -22 55t-58 43t-70 27.5t-68 17.5zM930 128q-13 0 -22.5 9.5t-9.5 22.5q-1 12 -29.5 33.5t-76 41t-92.5 25.5q-12 1 -20 10t-8 21v67q0 15 12 25q41 32 68 94.5t27 124.5q0 39 -12 66.5t-33.5 41t-43.5 19.5t-48 6q-13 0 -22.5 9t-9.5 22.5t9.5 23t22.5 9.5
q93 0 147 -53t54 -144q0 -71 -30 -143t-77 -116v-25q49 -10 99 -32t88.5 -56.5t38.5 -69.5q0 -13 -9.5 -22.5t-22.5 -9.5v0z" />
    <glyph glyph-name="assessment" unicode="&#xe6a0;" 
d="M811 768h-598q-35 0 -60 -25t-25 -60v-598q0 -35 25 -60t60 -25h598q35 0 60 25t25 60v598q0 35 -25 60t-60 25zM384 171h-85v298h85v-298zM555 171h-86v426h86v-426zM725 171h-85v170h85v-170z" />
    <glyph glyph-name="assignment2" unicode="&#xe6a1;" 
d="M811 768h-179q-13 38 -46 61.5t-74 23.5t-74 -23.5t-46 -61.5h-179q-35 0 -60 -25t-25 -60v-598q0 -35 25 -60t60 -25h598q35 0 60 25t25 60v598q0 35 -25 60t-60 25zM512 768q18 0 30.5 -12.5t12.5 -30t-12.5 -30t-30.5 -12.5t-30.5 12.5t-12.5 30t12.5 30t30.5 12.5z
M597 171h-298v85h298v-85zM725 341h-426v86h426v-86zM725 512h-426v85h426v-85z" />
    <glyph glyph-name="analysis" unicode="&#xe6a2;" 
d="M853 60v495l-256 256h-341q-35 0 -60 -25t-25 -61v-682q0 -36 24.5 -61t60.5 -25h512q28 0 51 17l-189 189q-55 -35 -118 -35q-88 0 -150.5 62.5t-62.5 151t62.5 151t150.5 62.5t150.5 -62.5t62.5 -151.5q0 -63 -35 -117l163 -164v0zM384 341q0 -53 37.5 -90.5
t90.5 -37.5t90.5 37.5t37.5 90.5t-37.5 90.5t-90.5 37.5t-90.5 -37.5t-37.5 -90.5z" />
    <glyph glyph-name="download" unicode="&#xe6a3;" 
d="M811 512h-171v256h-256v-256h-171l299 -299zM213 128h598v-85h-598v85z" />
    <glyph glyph-name="share1" unicode="&#xe6cc;" 
d="M789 232q-48 0 -83 -32l-255 147q14 33 14 68q0 34 -13 65l230 133q31 -38 80 -38q43 0 73.5 30.5t30.5 74t-30.5 74t-73.5 30.5t-73.5 -30.5t-30.5 -74.5v-6l-239 -139q-53 58 -131 58q-73 0 -124.5 -51.5t-51.5 -125t51.5 -125t124.5 -51.5q76 0 128 55l255 -147
q-6 -19 -6 -39q0 -51 36 -87.5t87.5 -36.5t87.5 36.5t36 87.5t-36 87.5t-87 36.5zM761.5 728q20.5 0 35 -14.5t14.5 -34.5t-14.5 -34.5t-35 -14.5t-34.5 14.5t-14 34.5t14 34.5t34.5 14.5zM286.5 301q-46.5 0 -79.5 33t-33 80t33 80t79.5 33t79.5 -33t33 -80t-33 -80
t-79.5 -33zM788.5 40q-28.5 0 -48.5 20t-20 48t20 48t48.5 20t48.5 -20t20 -48t-20 -48t-48.5 -20z" />
    <glyph glyph-name="change" unicode="&#xe6bc;" 
d="M946 288.5q-15 14.5 -35.5 14.5t-35.5 -14l-60 -61v356q0 73 -51.5 124.5t-123.5 51.5q-66 0 -115 -43t-59 -108h-1v-426q0 -32 -22 -54t-53.5 -22t-53.5 22t-22 54v476v0q0 23 -15 39q-15 14 -39.5 13t-39.5 -16l-142 -142q-14 -15 -14 -35.5t14.5 -35.5t35.5 -15t35 15
l65 65v-364q0 -73 51.5 -124.5t123.5 -51.5q66 0 116.5 43t59.5 107v0v427q0 31 22 53t53 22t53 -22t22 -53v-477v0q2 -18 15 -30q14 -15 37 -15t38 15l141 141q15 15 15 35.5t-15 35z" />
    <glyph glyph-name="icmorevertblack24px" unicode="&#xe6a6;" 
d="M512 555q35 0 60 25t25 60t-25 60t-60 25t-60 -25t-25 -60t25 -60t60 -25zM512 469q-35 0 -60 -25t-25 -60t25 -60t60 -25t60 25t25 60t-25 60t-60 25zM512 213q-35 0 -60 -25t-25 -60t25 -60t60 -25t60 25t25 60t-25 60t-60 25z" />
    <glyph glyph-name="data-order" unicode="&#xe6a7;" 
d="M363 597l-150 150l-149 -150h107v-426h-107l149 -150l150 150h-107v426h107zM427 171h512v-86h-512v86zM427 683h512v-86h-512v86zM427 427h512v-86h-512v86z" />
    <glyph glyph-name="zanting" unicode="&#xe6a8;" 
d="M154 798q0 41 28.5 69.5t68.5 28.5q41 0 69.5 -29t28.5 -69v-828q0 -41 -28.5 -69.5t-69.5 -28.5q-40 0 -68.5 29t-28.5 69v828zM675 798q0 41 28.5 69.5t69.5 28.5q40 0 68.5 -29t28.5 -69v-828q0 -41 -28.5 -69.5t-68.5 -28.5q-41 0 -69.5 29t-28.5 69v828z" />
    <glyph glyph-name="huikanshimiao" unicode="&#xe6a9;" 
d="M591 214q0 -18 26 -18q13 0 18 5l11 13q5 10 5 15v107q-5 10 -5 15t-12 11.5t-17 6.5q-8 0 -16 -8l-10 -10q-8 -10 -8 -15v-107q8 -10 8 -15v0zM701 266q0 -32 -5 -42l-16 -33q-18 -15 -29 -15q-5 0 -17 -2.5t-17 -2.5q-24 0 -34 5q-6 2 -13.5 7t-13.5 8q-23 12 -23 75
v38q0 32 5 42l18 33q16 15 27 15q5 0 17 2.5t17 2.5q24 0 34 -5q6 -2 15 -7.5t14.5 -8t15.5 -32.5q5 -15 5 -42v-38zM461 171h-52v175l-56 -15v38l100 30h8v-228zM522 734q187 0 319 -125t132 -301q0 -178 -133 -303.5t-318 -125.5t-318 125.5t-133 303.5h113
q0 -133 100.5 -227t237.5 -94t237.5 94t100.5 227t-100.5 227t-237.5 94v-67q0 -42 -22.5 -52.5t-54.5 16.5l-103 89q-32 28 -32 67t32 66l103 89q32 27 54.5 16.5t22.5 -52.5v-67z" />
    <glyph glyph-name="quanping" unicode="&#xe6aa;" 
d="M660 896h262q42 0 72 -30t30 -72v-262h-144v220h-220v144zM880 16v220h144v-262q0 -42 -30 -72t-72 -30h-262v144h220zM0 532v262q0 42 30 72t72 30h262v-144h-220v-220h-144zM144 236v-220h220v-144h-262q-42 0 -72 30t-30 72v262h144z" />
    <glyph glyph-name="bofang" unicode="&#xe6ac;" 
d="M154 820q0 43 24 55.5t59 -12.5l582 -409q35 -25 34.5 -59.5t-35.5 -58.5l-580 -402q-35 -24 -59.5 -11t-24.5 55v842z" />
    <glyph glyph-name="tuichuquanping" unicode="&#xe6ad;" 
d="M804 676h220v-144h-262q-42 0 -72 30t-30 72v262h144v-220zM660 -128v262q0 42 30 72t72 30h262v-144h-220v-220h-144zM220 676v220h144v-262q0 -42 -30 -72t-72 -30h-262v144h220zM0 92v144h262q42 0 72 -30t30 -72v-262h-144v220h-220z" />
    <glyph glyph-name="lubogongkaike" unicode="&#xe6b0;" 
d="M1024 -32h-1024v832h1024v-832zM64 32h896v704h-896v-704zM384 205v358l358 -179zM448 461v-154l154 77z" />
    <glyph glyph-name="putongkecheng" unicode="&#xe6b1;" 
d="M330 230l44 -48l-288 -272l-44 48zM416 144q-53 0 -90.5 37.5t-37.5 90.5t37.5 90.5t90.5 37.5t90.5 -37.5t37.5 -90.5t-37.5 -90.5t-90.5 -37.5zM416 336q-26 0 -45 -19t-19 -45t19 -45t45 -19t45 19t19 45t-19 45t-45 19zM736 368q-104 0 -182 74q-74 73 -74 182
q0 104 74 182l86 90l362 -362l-90 -89q-67 -77 -176 -77zM643 803l-41 -41q-58 -58 -58 -138q0 -82 58 -134q57 -58 134 -58q82 0 134 58l42 41l-269 272v0zM29 -102l70 620l301 170l32 -54l-275 -154l-58 -506l547 103l90 240l61 -23l-103 -272z" />
    <glyph glyph-name="zhibokecheng" unicode="&#xe6b2;" 
d="M1024 -128h-1024v768h1024v-768zM64 -64h896v640h-896v-640zM768 0h-640v512h640v-512zM192 64h512v384h-512v-384zM832 192h64v-64h-64v64zM832 64h64v-64h-64v64zM512 666l-272 172l35 55l237 -154l240 151l35 -55z" />
    <glyph glyph-name="zhibokecheng2" unicode="&#xe6b3;" 
d="M1011 555l-158 -69v69h-141q40 24 64.5 65.5t24.5 91.5q0 77 -53.5 130.5t-130.5 53.5t-130.5 -53.5t-53.5 -130.5q0 -50 24.5 -91.5t65.5 -65.5h-179q40 24 64.5 65.5t24.5 91.5q0 77 -53.5 130.5t-130 53.5t-130 -53.5t-53.5 -130.5q0 -50 24 -91.5t65 -65.5h-142v-420
h383l-215 -216l37 -36l215 215l216 -215l36 36l-215 216h383v68l158 -68v420zM486 712q0 55 38 93t93 38t93 -38t38 -93t-38 -93t-93 -38t-93 38t-38 93zM118 712q0 55 38 93t93.5 38t93.5 -38t38 -93t-38 -93t-93.5 -38t-93.5 38t-38 93zM801 187h-735v315h735v-39v-239
v-37zM958 213l-105 42v179l105 42v-263z" />
    <glyph glyph-name="zanting1" unicode="&#xe6c6;" 
d="M512 806q-114 0 -211.5 -56.5t-154 -154t-56.5 -211.5t56.5 -211.5t154 -154t211.5 -56.5t211.5 56.5t154 154t56.5 211.5t-56.5 211.5t-154 154t-211.5 56.5zM465 210q0 -12 -10.5 -19t-26.5 -7t-26.5 7t-10.5 19v348q0 12 10.5 19t26.5 7t26.5 -7t10.5 -19v-348z
M639 210q0 -12 -10.5 -19t-26.5 -7t-26.5 7t-10.5 19v348q0 12 10.5 19t26.5 7t26.5 -7t10.5 -19v-348z" />
    <glyph glyph-name="ting" unicode="&#xe6b8;" 
d="M512 747q-99 0 -182.5 -48.5t-132 -132t-48.5 -182.5t48.5 -182.5t132 -132t182.5 -48.5t182.5 48.5t132 132t48.5 182.5t-48.5 182.5t-132 132t-182.5 48.5v0v0zM512 59q-88 0 -163 43.5t-118.5 118.5t-43.5 163t43.5 163t118.5 118.5t163 43.5t163 -43.5t118.5 -118.5
t43.5 -163t-43.5 -163t-118.5 -118.5t-163 -43.5v0v0zM555 506l90 23q11 2 18 8.5t6.5 14.5t-9 12t-19.5 2l-100 -26q-11 -1 -18 -8t-6 -14v0v-170q-28 11 -60 2q-33 -9 -51.5 -33t-11.5 -49.5t35 -37.5t61 -3q26 7 43.5 24t21.5 38v0v0q1 8 0 16v201zM662 308
q-17 -29 -43 -49l35 -20q25 21 41 49.5t23 60.5l-35 20q-5 -33 -21 -61v0v0zM418 522l-35 20q-25 -22 -41 -50t-23 -60l35 -20q4 32 21 61t43 49v0v0zM418 522z" />
    <glyph glyph-name="sun" unicode="&#xe6c3;" 
d="M512 384zM301 384q0 87 62 149t149 62t149 -62t62 -149t-62 -149t-149 -62t-149 62t-62 149zM512 664q16 0 26 10t10 26v70q0 15 -10 25.5t-26 10.5t-26 -10.5t-10 -25.5v-70q0 -16 10 -26t26 -10zM512 104q-16 0 -26 -10t-10 -26v-70q0 -15 10 -25.5t26 -10.5t26 10.5
t10 25.5v70q0 16 -10 26t-26 10zM232 384q0 16 -10 26t-26 10h-70q-15 0 -25.5 -10t-10.5 -26t10.5 -26t25.5 -10h70q16 0 26 10t10 26zM898 420h-70q-16 0 -26 -10t-10 -26t10 -26t26 -10h70q15 0 25.5 10t10.5 26t-10.5 26t-25.5 10zM735 571q15 0 24 9l48 48
q11 11 11 25.5t-11 25.5t-25.5 11t-25.5 -11l-48 -48q-12 -11 -12 -25.5t12 -25.5q3 -1 8.5 -3.5t10 -4t8.5 -1.5zM262 185l-48 -48q-11 -11 -11 -25.5t11 -25.5q9 -9 24 -9t24 9l48 48q12 11 12 25.5t-12 25.5q-7 12 -22 12t-26 -12zM262 583q9 -9 24 -9t24 9
q12 11 12 25.5t-12 25.5l-48 48q-11 11 -25.5 11t-25.5 -11t-11 -25.5t11 -25.5zM762 185q-11 12 -25.5 12t-26 -11.5t-11.5 -26t12 -25.5l48 -48q9 -9 24 -9t24 9q11 11 11 25.5t-11 25.5z" />
    <glyph glyph-name="sousuo" unicode="&#xe6b4;" 
d="M911 -2l-155 168l-1 1q57 53 88.5 125t31.5 153q0 104 -51.5 193t-140 140.5t-193 51.5t-193 -51.5t-140.5 -140.5t-52 -193t52 -193t140.5 -140.5t192.5 -51.5q112 0 206 60q2 -3 4 -5l155 -169q8 -8 19 -8.5t20 6.5l16 15q8 8 8.5 19t-7.5 20zM155 445q0 91 44.5 168.5
t122 122.5t168.5 45t168.5 -45t122.5 -122.5t45 -168.5t-45 -168.5t-122.5 -122.5t-168.5 -45t-168.5 45t-122 122.5t-44.5 168.5z" />
    <glyph glyph-name="yulan" unicode="&#xe6b5;" 
d="M512 624q-50 0 -100 -13.5t-89.5 -35.5t-76 -48.5t-62.5 -52.5t-45.5 -48t-29 -35.5l-9.5 -13.5q4 -6 10 -14.5t28 -34.5t46.5 -49t62 -51.5t76 -49t89 -35t101 -14.5t100.5 14t89.5 35.5t75.5 48t62 53t45.5 48t29 35.5l9.5 14q-3 5 -9.5 14t-28.5 34.5t-46 49t-61.5 52
t-76.5 49t-89 34.5t-101 14v0zM512 214q-68 0 -116 48t-48 116t48 116t116 48t116 -48t48 -116t-48 -116t-116 -48v0zM430 377q0 -34 24 -58t58 -24t58 24t24 58t-24 58t-58 24t-58 -24t-24 -58v0z" />
    <glyph glyph-name="xinxi" unicode="&#xe6b6;" 
d="M527.5 806q-115.5 0 -214 -57t-155.5 -155.5t-57 -214.5t57 -214t155.5 -155t214 -57t214 57t155.5 155t57 214t-57 214.5t-155.5 155.5t-214 57zM570 166h-85v256h85v-256zM570 507h-85v86h85v-86z" />
    <glyph glyph-name="cuowu" unicode="&#xe6b7;" 
d="M814 686q-82 81 -192 110.5t-220 0t-192 -111t-111 -191.5t0 -220t111 -192t192 -111t219.5 0t192 111t111.5 192t0 220t-111 192zM666 172l-154 154l-154 -154l-58 58l154 154l-154 154l58 58l154 -154l154 154l58 -58l-154 -154l154 -154z" />
    <glyph glyph-name="yidong" unicode="&#xe6b9;" 
d="M938 384l-159 159v-109h-217v217h109l-159 159l-159 -159h109v-217h-217v109l-159 -159l159 -159v109h217v-217h-109l159 -159l159 159h-109v217h217v-109zM938 384z" />
    <glyph glyph-name="huakuai" unicode="&#xe6ba;" 
d="M757 810h-490q-89 0 -135 -46t-46 -135v-437q0 -5 106.5 -64t212.5 -115l107 -56q426 223 426 235v437q0 89 -46 135t-135 46zM314 352q0 -9 -6 -15.5t-15 -6.5t-15.5 6.5t-6.5 15.5v277q0 9 6.5 15.5t15.5 6.5t15 -6.5t6 -15.5v-277zM534 352q0 -9 -6.5 -15.5
t-15.5 -6.5t-15.5 6.5t-6.5 15.5v277q0 9 6.5 15.5t15.5 6.5t15.5 -6.5t6.5 -15.5v-277zM752 352q0 -9 -6.5 -15.5t-15 -6.5t-15 6.5t-6.5 15.5v277q0 9 6.5 15.5t15 6.5t15 -6.5t6.5 -15.5v-277z" />
    <glyph glyph-name="iconvolumelow" unicode="&#xe6bd;" 
d="M768 384q0 -164 -141 -236v472q141 -72 141 -236v0v0zM0 457q0 42 30 72t73 30h124l285 293v-936l-285 293h-124q-43 0 -73 30t-30 72v146zM0 457z" />
    <glyph glyph-name="iconvolumehigh" unicode="&#xe6be;" 
d="M627 896q173 -38 285 -182t112 -330t-112 -330t-285 -182v120q125 39 203.5 145.5t78.5 246.5t-78.5 246.5t-203.5 145.5v120zM768 384q0 -164 -141 -236v472q141 -72 141 -236v0v0zM0 457q0 42 30 72t73 30h124l285 293v-936l-285 293h-124q-43 0 -73 30t-30 72v146z
M0 457z" />
    <glyph glyph-name="player-volume-mute" unicode="&#xe6bf;" 
d="M627 153v-5q1 1 3 2zM745 267q23 51 23 117q0 164 -141 236v-235zM830.5 630.5q78.5 -106.5 78.5 -246.5q0 -123 -61 -220l83 -84q93 135 93 304q0 186 -112 330t-285 182v-120q125 -39 203.5 -145.5zM221 559h-118q-43 0 -73 -30t-30 -72v-146q0 -42 30 -72t73 -30h124
l285 -293v352zM512 500v352l-174 -178zM736 45q-50 -34 -109 -52v-121q108 24 192 89zM5 818l73 73l941 -941l-73 -73z" />
    <glyph glyph-name="forward5" unicode="&#xe6ab;" 
d="M102 281.5q0 -110.5 55 -205t149.5 -149.5t205.5 -55t205.5 55t149.5 149.5t55 205.5h-103q0 -127 -90 -217.5t-217 -90.5t-217 90.5t-90 217t90 217t217 90.5v-205l256 256l-256 256v-205q-111 0 -205.5 -55t-149.5 -149.5t-55 -205zM445 236l11 112h123v-36h-87l-6 -46
q6 0 6 5q0 3 2.5 3t2.5 2q0 3 1 3t4 -1.5t5 -1.5h10q21 0 26 -5q2 -2 10 -7t10 -8q5 -5 16 -26q5 -10 5 -30.5t-5 -25.5q-2 -2 -6 -11t-10 -15q-4 -4 -7.5 -6.5t-9.5 -5t-8 -3.5q-11 -5 -31.5 -5t-25.5 5q-3 3 -12 5.5t-13 4.5t-6.5 4.5t-3.5 4t-3 6t-3 6.5q-5 10 -5 25h41
q0 -10 10 -20q6 -5 21 -5q10 0 15 5l10 10q6 10 6 16v30l-6 11l-10 10q-10 5 -15 5h-10q-5 0 -11 -5q-2 -3 -4 -3q-1 0 -1 -2l-5 -5h-31z" />
    <glyph glyph-name="forward10" unicode="&#xe6ae;" 
d="M103 282q0 166 119 288q118 120 290 120v205l256 -256l-256 -256v205q-123 0 -216 -90q-91 -88 -91 -216q0 -126 91 -217q93 -90 216 -90t216 90q91 88 91 217h102q0 -171 -121 -290q-122 -120 -288 -120q-169 0 -288 120q-121 118 -121 290zM457 128h-48v167l-50 -13v35
l90 29h8v-218v0zM670 220q0 -30 -5 -41l-13 -31q-16 -13 -26 -13q-1 0 -16 -4q-3 0 -6 -1t-5.5 -1.5t-3.5 -0.5q-22 0 -31 5q-2 1 -12 7q-8 6 -12 8q-22 12 -22 72v35q0 31 5 42l17 31q13 13 24 13q1 0 16 3q2 1 5.5 2t6 1h3.5q22 0 31 -4q1 -1 5.5 -3.5t8 -4t8 -4.5t5.5 -3
q4 -2 14 -31q4 -13 4 -41v-36h-1v0zM575 170q0 -17 24 -17q13 0 17 4l9 13q5 9 5 13v103q-5 9 -5 14q0 4 -10 11q-11 6 -16 6q-6 0 -13 -8l-10 -9q-7 -10 -7 -14v-103q6 -12 6 -13z" />
    <glyph glyph-name="replay5" unicode="&#xe6af;" 
d="M512 691v205l-256 -256l256 -256v205q126 0 216.5 -90.5t90.5 -217t-90.5 -216.5t-217 -90t-217 90t-90.5 217h-102q0 -111 55 -205.5t149.5 -149.5t205 -55t205 55t149.5 149.5t55 205t-55 205t-149.5 149.5t-204.5 55zM445 236l10 112h123v-36h-87l-5 -46q5 0 5 5
q0 3 2.5 3t2.5 3q0 2 1.5 2t4 -1t4.5 -1h11q20 0 25 -6l10.5 -7t10.5 -8q5 -5 15 -25q5 -11 5 -31.5t-5 -25.5q-2 -2 -6 -11t-9.5 -14.5t-12 -9.5t-8.5 -6q-5 -5 -31 -5q-20 0 -25 5q-3 3 -12.5 5.5t-13.5 5.5q-3 1 -5.5 3.5t-3.5 4t-3 6t-3 6.5q-5 10 -5 26h41
q0 -11 10 -21q5 -5 20 -5q11 0 16 5l10 10q5 11 5 16v30l-5 11l-10 10q-11 5 -16 5h-10q-5 0 -10 -5q-3 -3 -5 -3v-2q-1 -5 -5 -5h-36z" />
    <glyph glyph-name="replay10" unicode="&#xe6c0;" 
d="M512 691v205l-256 -256l256 -256v205q127 0 217 -90.5t90 -217t-90 -217t-217 -90.5t-217 90.5t-90 217.5h-103q0 -111 55 -205.5t149.5 -149.5t205.5 -55t205.5 55t149.5 149.5t55 205t-55 205t-149.5 149.5t-205.5 55zM456 128h-46v169l-52 -15v35l93 31h5v-220z
M676 220q0 -31 -5 -41l-16 -31q-15 -15 -25 -15q-5 0 -15.5 -2.5t-15.5 -2.5q-20 0 -31 5q-5 3 -12.5 8t-12.5 7q-4 2 -6.5 5.5t-3.5 6t-2.5 9t-3.5 10.5q-5 16 -5 41v36q0 31 5 41l16 31q15 15 25 15q5 0 15.5 2.5t15.5 2.5q21 0 31 -5q5 -3 12.5 -8t12.5 -7q4 -2 6.5 -5.5
t3.5 -6t2.5 -9t3.5 -10.5q5 -15 5 -41v-36zM630 261v26q-5 10 -5 15q0 2 -1.5 3.5t-4.5 3t-5 3.5q-5 5 -15 5t-15 -5l-11 -10q-5 -10 -5 -15v-103q5 -10 5 -15q0 -2 1.5 -3.5t4.5 -3t5 -3.5q5 -5 15 -5t15 5l11 10q5 10 5 15v77z" />
    <glyph glyph-name="rewardsolid" unicode="&#xe6c2;" 
d="M509 832q-91 0 -173 -35t-142 -95t-95 -142t-35 -173t35 -173t95 -142t142 -95t173 -35t173 35t142 95t95 142t35 173t-35 173t-95 142t-142 95t-173 35v0zM537 275q-10 -11 -21 -38q-6 -14 -22.5 -32t-32.5 -28q-31 -18 -76.5 -33.5t-81.5 -18.5q-5 24 -22 45
q50 3 96 16t72 33q31 25 37 73q31 -9 46 -7q8 1 9.5 -2t-4.5 -8v0zM343 356q27 -4 167 -4q156 0 181 4q-1 -19 -1 -37v-57q0 -13 2 -40h-52v95h-246v-103h-51q2 21 2 38v66q0 21 -2 38v0zM367 487q50 -3 148 -3q97 0 148 3q-2 -21 -2 -51q0 -28 2 -50q-40 1 -148 1t-148 -1
q2 22 2 50q0 30 -2 51v0zM698 123q-22 19 -69.5 43t-86.5 37l23 35q88 -30 167 -72zM758 460h-48v57h-388v-68h-48v107q35 -2 108 -3q-13 31 -32 52l49 20q21 -33 36 -47l-44 -25h99q0 71 -3 91q29 -6 58 -4q6 1 7 -1.5t-3 -6.5q-11 -9 -11 -34v-45h52q22 39 31 80
q24 -10 52 -13q16 -2 2 -11t-39 -55q73 0 122 2v-96v0zM414 449h202v-27h-202v27z" />
    <glyph glyph-name="zhouqikechengtubiao1" unicode="&#xe6c1;" 
d="M442 719v-400h395l-36 51h-301v349h-58zM970 184q44 97 44 208q0 101 -39.5 194t-106.5 159.5t-159.5 106t-194.5 39.5q-114 0 -203 -42q-11 -5 -14.5 -16.5t2.5 -22.5v-1q5 -9 15 -12t20 1q158 71 331 12q94 -31 164.5 -101.5t102.5 -164.5q58 -174 -13 -335l-63 33
l8 -177l149 94l-43 25v0v0zM730 -19q-14 14 -31 5q-132 -61 -284 -30q-124 27 -215.5 118.5t-119.5 217.5q-31 144 26 273l54 -29l-8 177l-148 -95l53 -27q-41 -88 -41 -201q0 -101 39.5 -194t106 -159.5t159 -106t194.5 -39.5q107 0 208 44q13 7 15 21t-8 25v0v0z" />
    <glyph glyph-name="newshotfill" unicode="&#xe7c4;" 
d="M768 765h-509q-41 0 -68.5 -27.5t-27.5 -68.5v-637q0 -41 27.5 -68.5t68.5 -27.5q4 0 9.5 1.5t6.5 1.5l237 147l240 -147q6 -3 16 -3q41 0 68.5 27.5t27.5 68.5v637q0 41 -27.5 68.5t-68.5 27.5zM672 256h-320q-14 0 -23 9t-9 23t9 23t23 9h320q14 0 23 -9t9 -23t-9 -23
t-23 -9zM672 384h-320q-14 0 -23 9t-9 23t9 23t23 9h320q14 0 23 -9t9 -23t-9 -23t-23 -9zM672 512h-320q-14 0 -23 9t-9 23t9 23t23 9h320q14 0 23 -9t9 -23t-9 -23t-23 -9z" />
    <glyph glyph-name="newshot" unicode="&#xe7c5;" 
d="M768 765h-509q-41 0 -68.5 -27.5t-27.5 -68.5v-637q0 -41 27.5 -68.5t68.5 -27.5q4 0 9.5 1.5t6.5 1.5l237 147l240 -147q6 -3 16 -3q41 0 68.5 27.5t27.5 68.5v637q0 41 -27.5 68.5t-68.5 27.5zM800 32q0 -27 -26 -32l-246 150q-6 4 -16 4q-13 0 -16 -4l-243 -150
q-10 3 -18 12t-8 20v637q0 14 9 23t23 9h509q14 0 23 -9t9 -23v-637zM672 576h-320q-14 0 -23 -9t-9 -23t9 -23t23 -9h320q14 0 23 9t9 23t-9 23t-23 9zM672 448h-320q-14 0 -23 -9t-9 -23t9 -23t23 -9h320q14 0 23 9t9 23t-9 23t-23 9zM672 320h-320q-14 0 -23 -9t-9 -23
t9 -23t23 -9h320q14 0 23 9t9 23t-9 23t-23 9z" />
    <glyph glyph-name="qiehuan" unicode="&#xe6d3;" 
d="M895 641h-128v127q0 27 -18.5 45.5t-45.5 18.5h-575q-26 0 -45 -18.5t-19 -45.5v-574q0 -27 19 -45.5t45 -18.5h128v-128q0 -27 19 -45.5t45 -18.5h575q26 0 45 18.5t19 45.5v575q0 26 -19 45t-45 19v0zM895 2h-575v128h383q27 0 45.5 18.5t18.5 45.5v383h128v-575v0z
" />
    <glyph glyph-name="icon-calendar-o" unicode="&#xe6ca;" 
d="M855 718h-65v83q0 13 -9.5 22t-22.5 9h-2q-13 0 -22 -9t-9 -22v-83h-423v83q0 13 -9 22t-22 9h-2q-13 0 -22.5 -9t-9.5 -22v-83h-68q-43 0 -73.5 -30.5t-30.5 -74.5v-573q0 -43 30.5 -73.5t73.5 -30.5h686q43 0 73.5 30.5t30.5 73.5v573q0 44 -30.5 74.5t-73.5 30.5z
M766 321l-286 -286q-8 -8 -19 -10l-10 -2h-1q-17 0 -30 12l-154 155q-12 12 -12 29t12 29t29 12t29 -12l126 -126l257 258q12 12 29.5 12t29.5 -12t12 -29.5t-12 -29.5zM885 488h-745v144h745v-144z" />
    <glyph glyph-name="remen" unicode="&#xe6cb;" 
d="M412 -54q-41 22 -66 59t-26 80q-1 39 13 75t31 58.5t44.5 55t40.5 52.5q20 30 32.5 59t16.5 49t5 35.5t-1 23.5l-2 7q3 -1 7 -3.5t16 -14t23 -26.5t24.5 -42t22.5 -59q15 -47 10 -100q-2 -35 -13 -73.5t-20 -58.5l-10 -21l7.5 2.5t16.5 9.5t22.5 20t21 36.5t16.5 55.5
q56 -55 60 -115q4 -56 -28 -104t-87 -71q87 19 153.5 78t93.5 121q17 40 23.5 85.5t5.5 72.5t-6 74q0 8 -1 12q-4 43 3 85t16 63l9 20q-3 -1 -8 -2.5t-19.5 -9t-28.5 -17.5t-32 -28t-33 -40q-10 -16 -18.5 -38.5t-11.5 -36.5l-3 -14q5 47 -28 133q-15 39 -43 90.5t-38 84.5
q-9 42 -2.5 78.5t18.5 60.5l13 24q-8 -1 -22.5 -4.5t-55.5 -19t-77 -36t-78 -59t-68 -85.5q-23 -42 -37 -82t-16.5 -67t-2 -48.5t3.5 -31.5l3 -10q-36 31 -54 74q-8 19 -11.5 39t-2.5 31v11q-3 -3 -8 -9t-19 -25.5t-25.5 -40t-23 -52.5t-16.5 -63.5t-1.5 -71.5t18.5 -79
q35 -98 101 -164t152 -93z" />
    <glyph glyph-name="subtitle" unicode="&#xe783;" 
d="M899 771h-774q-35 0 -60.5 -25.5t-25.5 -60.5v-602q0 -35 25.5 -60.5t60.5 -25.5h774q35 0 60.5 25.5t25.5 60.5v602q0 35 -25.5 60.5t-60.5 25.5zM899 83h-774v129h774v-129z" />
    <glyph glyph-name="-check-circle" unicode="&#xe6c7;" 
d="M529 -79q-94 0 -179.5 37t-147.5 99t-99 147.5t-37 179.5t37 179.5t99 147.5t147.5 99t179.5 37t179.5 -37t147.5 -99t98.5 -147.5t36.5 -179.5t-36.5 -179.5t-98.5 -147.5t-147.5 -99t-179.5 -37zM529 775q-106 0 -196 -52.5t-142.5 -142.5t-52.5 -196t52.5 -196
t142.5 -142.5t196 -52.5t196 52.5t142.5 142.5t52.5 196t-52.5 196t-142.5 142.5t-196 52.5zM828 555l-61 61l-324 -324l-152 152l-61 -60l213 -214v0v0z" />
    <glyph glyph-name="undone-check" unicode="&#xe6c8;" 
d="M529 -79q-94 0 -179.5 37t-147.5 99t-99 147.5t-37 179.5t37 179.5t99 147.5t147.5 99t179.5 37t179.5 -37t147.5 -99t98.5 -147.5t36.5 -179.5t-36.5 -179.5t-98.5 -147.5t-147.5 -99t-179.5 -37zM529 775q-106 0 -196 -52.5t-142.5 -142.5t-52.5 -196t52.5 -196
t142.5 -142.5t196 -52.5t196 52.5t142.5 142.5t52.5 196t-52.5 196t-142.5 142.5t-196 52.5z" />
    <glyph glyph-name="share_fill" unicode="&#xe6d2;" 
d="M791 231q-48 0 -83 -32l-257 148q13 33 13 69q0 34 -12 65l232 134q31 -38 80 -38q44 0 74.5 31t30.5 74.5t-30.5 74t-74 30.5t-74.5 -30.5t-31 -74.5v-7l-241 -139q-53 58 -132 58q-74 0 -126 -52.5t-52 -126t52 -125.5t126 -52q76 0 129 55l257 -149q-6 -18 -6 -38
q0 -52 36.5 -88.5t88.5 -36.5t88.5 36.5t36.5 88t-36.5 88.5t-88.5 37z" />
    <glyph glyph-name="zhuce" unicode="&#xe6d4;" 
d="M391 -36h-3q-113 10 -188.5 57.5t-75.5 109.5q0 38 35.5 69.5t87.5 50.5t116 29v11q-32 24 -53 57t-31 73.5t-13.5 78t-3.5 86.5q0 102 57.5 160t158.5 58q100 0 153.5 -56.5t53.5 -161.5q0 -49 -16 -107t-42 -109q-6 -11 -18 -14.5t-23 2.5q-11 5 -14.5 17t2.5 23
q23 44 37 95.5t14 92.5q0 159 -147 159q-155 0 -155 -159q0 -93 17 -156.5t69 -96.5q14 -9 14 -25v-54q0 -12 -8 -20.5t-19 -9.5q-91 -10 -152 -39t-61 -53q0 -31 60 -65.5t150 -42.5q13 -1 21 -10.5t7 -21.5t-9.5 -20t-20.5 -8zM877 237l-109 107q-4 4 -11 4q-5 0 -10 -4
l-203 -209q-4 -4 -4 -7l-28 -147q-1 -7 4 -13q4 -4 10 -4q2 0 3 1l129 29q4 0 8 4l211 219q11 9 0 20zM649 53l-36 39q-5 4 -13 1.5t-13 -6.5q-4 -5 -5 -12.5t3 -11.5l27 -33l-45 -13l11 79l181 184l55 -54z" />
    <glyph glyph-name="denglu" unicode="&#xe6d5;" 
d="M391 -36v0h-3q-113 10 -188.5 58t-75.5 109q0 38 35.5 69.5t88 51t115.5 28.5v12q-32 23 -53 56t-30.5 73.5t-13 78t-3.5 86.5q0 102 57 160t158 58q100 0 153.5 -56.5t53.5 -161.5q0 -49 -16 -107t-43 -109q-6 -11 -17.5 -14.5t-22.5 2t-15 17.5t2 23q24 44 38 95t14 93
q0 158 -147 158q-155 0 -155 -158q0 -93 17 -156.5t69 -96.5q14 -9 14 -26v-53q0 -12 -8 -20.5t-19 -9.5q-91 -10 -151.5 -39.5t-60.5 -53.5q0 -31 59.5 -65t149.5 -42q13 -1 21 -10.5t7 -22.5q-1 -11 -10 -19t-20 -8v0zM753 144h-120q-13 0 -21.5 8.5t-8.5 21t8.5 21.5
t21.5 9h120q12 0 21 -9t9 -21.5t-9 -21t-21 -8.5zM693 51h-60q-13 0 -21.5 8.5t-8.5 21t8.5 21.5t21.5 9h60q12 0 21 -9t9 -21.5t-9 -21t-21 -8.5zM813 -39h-240q-37 0 -63.5 26.5t-26.5 63.5v153q0 37 26.5 63.5t63.5 26.5h240q37 0 63.5 -26.5t26.5 -63.5v-153
q0 -37 -26.5 -63.5t-63.5 -26.5zM573 234q-13 0 -21.5 -9t-8.5 -21v-153q0 -12 8.5 -21t21.5 -9h240q12 0 21 9t9 21v153q0 12 -9 21t-21 9h-240z" />
    <glyph glyph-name="cloud-ask" unicode="&#xe95a;" 
d="M823 469q-22 110 -109.5 183t-201.5 73q-91 0 -167.5 -46t-118.5 -124q-96 -10 -161 -83.5t-65 -172.5q0 -106 75 -181t181 -75h555q89 0 151 61.5t62 151.5q0 84 -57.5 145.5t-143.5 67.5zM538 158q-13 -13 -26 -13q-17 0 -26 9q-12 12 -12 29.5t12.5 30t29.5 12.5
q19 0 26 -13q13 -12 13 -30q-9 -17 -17 -25zM631 410q-4 -13 -21 -30l-43 -43l-12 -13q-2 -2 -4.5 -6t-4.5 -7l-4 -8q0 -2 -2 -7t-2 -10q-8 -30 -30 -30q-13 0 -21.5 8.5t-8.5 25.5q0 21 8 39q7 19 17 29l30 30q7 5 14.5 12t11.5 10q2 2 6.5 8.5t6.5 8.5q4 4 4 21
q0 23 -17 34q-13 13 -38 13q-30 0 -43 -13q-14 -14 -21 -43q-6 -29 -35 -29q-8 0 -25 8q-9 9 -9 21q0 29 17 52q11 20 47 42q29 17 73 17q38 0 64 -12q31 -16 42 -39q18 -34 18 -55q-4 -6 -8.5 -18t-9.5 -16z" />
  </font>
</defs>
</svg>
